Advertise
onlinemovies


Underworld Awakening [2012] DVDrip XviD-CORE

Published On: 13-04-2012, 18:49

Torrent name:Underworld Awakening [2012] DVDrip XviD-CORE

Seeds:0

Leechers:0

Health: 

Total size:733.66 MB

Torrent added:2012-04-14 10:23:57

Info hash:8FCC2DB963F1B57153497F44DA1B3196EEA66381


Description:

General Complete name : Underworld.Awakening.2012.RC.720p.BluRay.x264-TDP.mkv Format : Matroska Format version : Version 2 File size : 4.31 GiB Duration : 1h 25mn Overall bit rate : 7 242 Kbps SOURCE : RC 720p SUBTITLES : HC english for non english parts Video ID : 1 Format : AVC Format/Info : Advanced Video Codec Format profile : [email protected] Format settings, CABAC : Yes Format settings, ReFrames : 2 frames Muxing mode : Header stripping Codec ID : V_MPEG4/ISO/AVC Duration : 1h 25mn Bit rate : 6 650 Kbps Width : 1 280 pixels Height : 720 pixels Display aspect ratio : 16:9 Frame rate : 25.000 fps Color space : YUV Chroma subsampling : 4:2:0 Bit depth : 8 bits Scan type : Progressive Bits/(Pixel*Frame) : 0.289 Stream size : 3.96 GiB (92%) Writing library : x264 core 77 Default : Yes Forced : No Audio ID : Thx OBSERVER Format : AC-3 Format/Info : Audio Coding 3 Mode extension : CM (complete main) Muxing mode : Header stripping Codec ID : A_AC3 Duration : 1h 25mn Bit rate mode : Constant Bit rate : 448 Kbps Channel(s) : 6 channels Channel positions : Front: L C R, Side: L R, LFE Sampling rate : 48.0 KHz Bit depth : 16 bits Compression mode : Lossy Stream size : 273 MiB (6%) Default : Yes Forced : No IMDB : http://www.imdb.com/title/tt1496025/ Plot : When human forces discover the existence of the Vampire and Lycan clans, a war to eradicate both species commences. The vampire warrioress Selene leads the battle against humankind.

Download utorrent client from http://www.utorrent.com/ before downloading from below magnet link

[related-news][/related-news]
Dear visitor, you are browsing our website as Guest.
We strongly recommend you to register and login to view hidden contents.

Comments:

Add Comments
 

This site doesn't store any files on its server. We only index and link to content provided by other sites.