2013Zone For Latest Downloads

 
     
 
Legal Downloads » Torrents » Underworld Awakening [2012] DVDrip XviD-CORE
Menu
Home Applications
Games Movies
Music TV Shows
Torrents Graphics

Sitemap

RSS
 
Advanced Search
Last News
Site Info
Top Contributors:
  1    supper88 32766
  2    admin 32630
  3    creativelivenew 8706
  4    whathesupa 2799
  5    candymypost 840
  6    hvnteam 629
  7    vuong87 3


Articles:
  This Hour: 0
  Today: 0
  This Month: 20
  All Time: 514775


Torrents:
  Today: 0
  Yesterday: 0
  All Time: 155778


Membership:
  Registered Today :0
  This Hour:0
  This Month:0
  Total:12
  Banned:6

{online}
{inform_torrent}
Friend:
We Recomend
Trend
Trend
onlinemovies

Search In Site

Torrents : Underworld Awakening [2012] DVDrip XviD-CORE
 

Torrent name:Underworld Awakening [2012] DVDrip XviD-CORE

Seeds:0

Leechers:0

Health: 

Total size:733.66 MB

Torrent added:2012-04-14 09:23:57

Info hash:8FCC2DB963F1B57153497F44DA1B3196EEA66381


Description:
 

General

Complete name                            : Underworld.Awakening.2012.RC.720p.BluRay.x264-TDP.mkv
Format                                   : Matroska
Format version                           : Version 2
File size                                : 4.31 GiB
Duration                                 : 1h 25mn
Overall bit rate                         : 7 242 Kbps
SOURCE                                   : RC 720p
SUBTITLES                                : HC english for non english parts

Video
ID                                       : 1
Format                                   : AVC
Format/Info                              : Advanced Video Codec
Format profile                           : [email protected]
Format settings, CABAC                   : Yes
Format settings, ReFrames                : 2 frames
Muxing mode                              : Header stripping
Codec ID                                 : V_MPEG4/ISO/AVC
Duration                                 : 1h 25mn
Bit rate                                 : 6 650 Kbps
Width                                    : 1 280 pixels
Height                                   : 720 pixels
Display aspect ratio                     : 16:9
Frame rate                               : 25.000 fps
Color space                              : YUV
Chroma subsampling                       : 4:2:0
Bit depth                                : 8 bits
Scan type                                : Progressive
Bits/(Pixel*Frame)                       : 0.289
Stream size                              : 3.96 GiB (92%)
Writing library                          : x264 core 77
Default                                  : Yes
Forced                                   : No

Audio
ID                                       : Thx OBSERVER
Format                                   : AC-3
Format/Info                              : Audio Coding 3
Mode extension                           : CM (complete main)
Muxing mode                              : Header stripping
Codec ID                                 : A_AC3
Duration                                 : 1h 25mn
Bit rate mode                            : Constant
Bit rate                                 : 448 Kbps
Channel(s)                               : 6 channels
Channel positions                        : Front: L C R, Side: L R, LFE
Sampling rate                            : 48.0 KHz
Bit depth                                : 16 bits
Compression mode                         : Lossy
Stream size                              : 273 MiB (6%)
Default                                  : Yes
Forced                                   : No

IMDB : http://www.imdb.com/title/tt1496025/

Plot :
When human forces discover the existence of the Vampire and Lycan clans,
a war to eradicate both species commences. The vampire warrioress Selene
leads the battle against humankind.

Download utorrent client from http://www.utorrent.com/ before downloading from below magnet link

magnet:?xt=urn:btih:8FCC2DB963F1B57153497F44DA1B3196EEA66381


 
 
 
Dear visitor, you went to the site as an unregistered user. We encourage you to register or enter the site under your name.
 
   
 
 (Votes #: 0)