2013Zone For Latest Downloads

 
     
 
Legal Downloads » Torrents » Paris.Texas.1984.SWESUB.DVDRiP.XViD.AC-3(5.1).avi-Zen_Bud
Menu
Home Applications
Games Movies
Music TV Shows
Torrents Graphics

Sitemap

RSS
 
Advanced Search
Last News
Site Info
Top Contributors:
  1    supper88 32766
  2    admin 32693
  3    Whisky 10080
  4    Shark_ 8911
  5    creativelivenew 8706
  6    whathesupa 2799
  7    candymypost 840
  8    hvnteam 629
  9    vuong87 3


Articles:
  This Hour: 0
  Today: 0
  This Month: 62
  All Time: 515562


Torrents:
  Today: 0
  Yesterday: 0
  All Time: 156685


Membership:
  Registered Today :0
  This Hour:0
  This Month:0
  Total:14
  Banned:1

{online}
{inform_torrent}
Friend:
We Recomend
Trend
Trend
Ad1

Search In Site

Torrents : Paris.Texas.1984.SWESUB.DVDRiP.XViD.AC-3(5.1).avi-Zen_Bud
 

Torrent name:Paris.Texas.1984.SWESUB.DVDRiP.XViD.AC-3(5.1).avi-Zen_Bud

Seeds:6

Leechers:4

Health: 

Total size:1.41 GB

Torrent added:2012-04-15 08:01:44

Info hash:3F3B41BB0C37E98CD56235FAC3ACAED2CAC2EAC0


Description:
 

Paris.Texas.1984.SWESUB.DVDRiP.XViD.AC-3(5.1).avi-Zen_Bud

Format                                   : AVI
File size                                : 1.41 GiB
Duration                                 : 2h 19mn
Overall bit rate                         : 1 452 Kbps

Video

Format                                   : MPEG-4 Visual
Format settings, Matrix                  : Default (H.263)
Codec ID                                 : XVID
Duration                                 : 2h 19mn
Bit rate                                 : 1 057 Kbps
Width                                    : 716 pixels
Height                                   : 568 pixels
Display aspect ratio                     : 16:9
Frame rate                               : 25.000 fps
Color space                              : YUV
Bits/(Pixel*Frame)                       : 0.104
Stream size                              : 1.03 GiB (73%)
Writing library                          : XviD 1.1.2 

Audio

Format                                   : AC-3
Format settings, Endianness              : Big
Codec ID                                 : 2000
Duration                                 : 2h 19mn
Bit rate mode                            : Constant
Bit rate                                 : 384 Kbps
Channel(s)                               : 6 channels
Channel positions                        : Front: L C R, Side: L R, LFE
Sampling rate                            : 48.0 KHz
Bit depth                                : 16 bits
Compression mode                         : Lossy
Stream size                              : 382 MiB (26%)

----------------------------------------------------------------------
Drama |                      Ratings: 8.0/10
                                                         
http://www.imdb.com/title/tt0087884/

----------------------------------------------------------------------
A man wanders out of the desert not knowing who he is. His brother finds him, 
and helps to pull his memory back of the life he led before he walked out on 
his wife and son four years before...

Download utorrent client from http://www.utorrent.com/ before downloading from below magnet link

magnet:?xt=urn:btih:3F3B41BB0C37E98CD56235FAC3ACAED2CAC2EAC0


Paris.Texas.1984.SWESUB.DVDRiP.XViD.AC-3(5.1).avi-Zen_Bud Fast Download


Ad2

 
 
 
Dear visitor, you went to the site as an unregistered user. We encourage you to register or enter the site under your name.
 
   
 
 (Votes #: 0)