2013Zone For Latest Downloads

 
     
 
Legal Downloads » Torrents » The Cabin in the Woods (2012) DVDScR XviD.AC3 - ANXC
Menu
Home Applications
Games Movies
Music TV Shows
Torrents Graphics

Sitemap

RSS
 
Advanced Search
Last News
Site Info
Top Contributors:
  1    supper88 32766
  2    admin 32723
  3    Whisky 10080
  4    Shark_ 8911
  5    creativelivenew 8706
  6    whathesupa 2799
  7    candymypost 840
  8    hvnteam 629
  9    vuong87 3


Articles:
  This Hour: 0
  Today: 0
  This Month: 31
  All Time: 515496


Torrents:
  Today: 0
  Yesterday: 0
  All Time: 156680


Membership:
  Registered Today :0
  This Hour:0
  This Month:0
  Total:14
  Banned:1

{online}
{inform_torrent}
Friend:
Full Download Scripts
Torrent Download
Trend
Trend

Search In Site

Torrents : The Cabin in the Woods (2012) DVDScR XviD.AC3 - ANXC
 

Torrent name:The Cabin in the Woods (2012) DVDScR XviD.AC3 - ANXC

Seeds:0

Leechers:0

Health: 

Total size:711.94 MB

Torrent added:2012-04-15 09:36:12

Info hash:1F8B38D56E1EDB19565B72A3FD17BCF1E1AFFA30


Description:
 

IMDb:  http://www.imdb.com/title/tt1259521/
------------------------------------------

The Cabin in the Woods (2012) DVDScR_XviD.AC3 - ANXC
----------------------------------------------------

Sample......................: Yes

Sample Size.................: 19.4 MiB
--------------------------------------

Details:
-------

Video
ID                               : 0
Format                           : MPEG-4 Visual
Format profile                   : [email protected]
Format settings, BVOP            : Yes
Format settings, QPel            : No
Format settings, GMC             : No warppoints
Format settings, Matrix          : Custom
Codec ID                         : XVID
Codec ID/Hint                    : XviD
Duration                         : 1h 35mn
Bit rate                         : 1 625 Kbps
Width                            : 720 pixels
Height                           : 304 pixels
Display aspect ratio             : 2.35:1
Frame rate                       : 23.976 fps
Resolution                       : 24 bits
Colorimetry                      : 4:2:0
Scan type                        : Progressive
Bits/(Pixel*Frame)               : 0.310
Stream size                      : 690 MiB (99%)
Writing library                  : XviD 58

Audio
ID                               : 1
Format                           : AC-3
Format/Info                      : Audio Coding 3
Codec ID                         : 2000
Duration                         : 1h 35mn
Bit rate mode                    : Constant
Bit rate                         : 192 Kbps
Channel(s)                       : 2 channels
Channel positions                : L R
Sampling rate                    : 48.0 KHz
Stream size                      : 147 MiB (11%)
Alignment                        : Aligned on interleaves
Interleave, duration             : 64 ms (1.53 video frames)
Interleave, preload duration     : 192 ms
-----------------------------------------

Plot:
----

Five friends go for a break at a remote cabin in the 
woods, where they get more than they bargained for. 
Together, they must discover the truth behind the 
cabin in the woods.
------------------

Screenshots:
-----------
--------------

Download utorrent client from http://www.utorrent.com/ before downloading from below magnet link

magnet:?xt=urn:btih:1F8B38D56E1EDB19565B72A3FD17BCF1E1AFFA30


The Cabin in the Woods (2012) DVDScR XviD.AC3 - ANXC Fast Download



 
 
 
Dear visitor, you went to the site as an unregistered user. We encourage you to register or enter the site under your name.
 
   
 
 (Votes #: 0)