2013Zone For Latest Downloads

 
     
 
Legal Downloads » Torrents » Fernandinha Fernandez .rmvb
Menu
Home Applications
Games Movies
Music TV Shows
Torrents Graphics

Sitemap

RSS
 
Advanced Search
Last News
Site Info
Top Contributors:
  1    supper88 32766
  2    admin 32723
  3    Whisky 10080
  4    Shark_ 8911
  5    creativelivenew 8706
  6    whathesupa 2799
  7    candymypost 840
  8    hvnteam 629
  9    vuong87 3


Articles:
  This Hour: 0
  Today: 0
  This Month: 31
  All Time: 515496


Torrents:
  Today: 0
  Yesterday: 0
  All Time: 156680


Membership:
  Registered Today :0
  This Hour:0
  This Month:0
  Total:14
  Banned:1

{online}
{inform_torrent}
Friend:
Full Download Scripts
Torrent Download
Trend
Trend

Search In Site

Torrents : Fernandinha Fernandez .rmvb
 

Torrent name:Fernandinha Fernandez .rmvb

Seeds:0

Leechers:0

Health: 

Total size:252.76 MB

Torrent added:2012-04-14 20:36:47

Info hash:535BF17B955D64155B0F41C27AD985FB22034110


Description:
 

GET TORRENT FILE:
 
http://www.pastebay.net/488661

________________________________________________________________________________
################################################################################

Seed up to 1.1 share ratio of the file... 

Screenshots:
 
http://bayimg.com/nAOmEaaDa
 
http://bayimg.com/NAOmIaADa
________________________________________________________________________________

FILE INFO:
File size                        : 253 MiB
Duration                         : 48mn 40s
Overall bit rate                 : 697 Kbps
Video
Format                           : RealVideo
Codec ID/Info                    : Based on AVC (H.264),
Bit rate                         : 633 Kbps
Width                            : 768 pixels
Height                           : 432 pixels
Display aspect ratio             : 16:9
Frame rate                       : 25.000 fps
Resolution                       : 12 bits
Stream size                      : 220 MiB (87%)
Audio       
Bit rate                         : 64.1 Kbps
Channel(s)                       : 2 channels
Sampling rate                    : 44.1 KHz
Resolution                       : 16 bits
Stream size                      : 22.3 MiB (9%)


Visit My Profile for More Files...
 
http://thepiratebay.se/user/Oldiesel/


Thanks for Seeding!!!!

Download utorrent client from http://www.utorrent.com/ before downloading from below magnet link

magnet:?xt=urn:btih:535BF17B955D64155B0F41C27AD985FB22034110


Fernandinha Fernandez .rmvb Fast Download



 
 
 
Dear visitor, you went to the site as an unregistered user. We encourage you to register or enter the site under your name.
 
   
 
 (Votes #: 0)