Advertise
onlinemovies


4084 Chaalis Chaurassi (2012) 1CD DVD Rip Xvid MP3 Subs

Published On: 15-04-2012, 10:45

Torrent name:4084 Chaalis Chaurassi (2012) 1CD DVD Rip Xvid MP3 Subs

Seeds:4

Leechers:7

Health: 

Total size:695.25 MB

Torrent added:1969-12-31 19:00:00

Info hash:1615797E00F007E436B942B057E5BB0B8D54A2B6


Description:

4084 Chaalis Chaurassi (2012) 1CD DVD Rip Xvid MP3 Subs http://www.shotpix.com/images/64935691367635141458.jpg INFO [CODE]General Complete name : 4084 Chaalis Chaurassi (2012) 1CD DVD Rip Xvid MP3 Subs BWTV4084 Chaalis Chaurassi (2012) 1CD DVD Rip Xvid MP3 Subs BWTV.avi Format : AVI Format/Info : Audio Video Interleave File size : 695 MiB Duration : 1h 55mn Overall bit rate : 842 Kbps Writing library : VirtualDub build 32661/release Video ID : 0 Format : MPEG-4 Visual Format profile : Advanced [email protected] Format settings, BVOP : 2 Format settings, QPel : Yes Format settings, GMC : No warppoints Format settings, Matrix : Default (H.263) Codec ID : XVID Codec ID/Hint : XviD Duration : 1h 55mn Bit rate : 736 Kbps Width : 640 pixels Height : 288 pixels Display aspect ratio : 2.222 Frame rate : 25.000 fps Color space : YUV Chroma subsampling : 4:2:0 Bit depth : 8 bits Scan type : Progressive Compression mode : Lossy Bits/(Pixel*Frame) : 0.160 Stream size : 608 MiB (87%) Writing library : XviD 1.2.1 (UTC 2008-12-04) Audio ID : 1 Format : MPEG Audio Format version : Version 1 Format profile : Layer 3 Mode : Joint stereo Mode extension : MS Stereo Codec ID : 55 Codec ID/Hint : MP3 Duration : 1h 55mn Bit rate mode : Constant Bit rate : 96.0 Kbps Channel(s) : 2 channels Sampling rate : 32.0 KHz Compression mode : Lossy Stream size : 79.3 MiB (11%) Alignment : Split accross interleaves Interleave, duration : 40 ms (1.00 video frame) Interleave, preload duration : 500 ms Writing library : LAME3.99r Encoding settings : -m j -V 4 -q 2 -lowpass 15.1 -b 96[/CODE]

Download utorrent client from http://www.utorrent.com/ before downloading from below magnet link

Friends: Free Full Download | Torrent Magnet Download | Graphics Download | Watch Online Movies
Dear visitor, you are browsing our website as Guest.
We strongly recommend you to register and login to view hidden contents.

Comments:

Add Comments
 

This site doesn't store any files on its server. We only index and link to content provided by other sites.