2013Zone For Latest Downloads

 
     
 
Legal Downloads » Torrents » Melanie jane atk hardcore
Menu
Home Applications
Games Movies
Music TV Shows
Torrents Graphics

Sitemap

RSS
 
Advanced Search
Last News
Site Info
Top Contributors:
  1    supper88 32766
  2    admin 32723
  3    Whisky 10080
  4    Shark_ 8911
  5    creativelivenew 8706
  6    whathesupa 2799
  7    candymypost 840
  8    hvnteam 629
  9    vuong87 3


Articles:
  This Hour: 0
  Today: 0
  This Month: 31
  All Time: 515496


Torrents:
  Today: 0
  Yesterday: 0
  All Time: 156680


Membership:
  Registered Today :0
  This Hour:0
  This Month:0
  Total:14
  Banned:1

{online}
{inform_torrent}
Friend:
Full Download Scripts
Torrent Download
Trend
Trend

Search In Site

Torrents : Melanie jane atk hardcore
 

Torrent name:Melanie jane atk hardcore

Seeds:0

Leechers:0

Health: 

Total size:428.96 MB

Torrent added:2012-04-14 06:05:10

Info hash:B4FE51D3396DEFFDB4A3783AC8D1093209FA5200


Description:
 

Screens:


Format : Windows Media
File size : 429 MiB
Duration : 28mn 1s
Overall bit rate mode : Variable
Overall bit rate : 2 140 Kbps
Maximum Overall bit rate : 2 197 Kbps
Encoded date : UTC 2010-04-14 17:39:52.484

Video
ID : 2
Format : VC-1
Format profile : [email protected]
Codec ID : WVC1
Codec ID/Hint : Microsoft
Description of the codec : Windows Media Video 9 Advanced Profile
Duration : 28mn 1s
Bit rate mode : Constant
Bit rate : 2 000 Kbps
Width : 854 pixels
Height : 480 pixels
Display aspect ratio : 16:9
Frame rate : 29.970 fps
Chroma subsampling : 4:2:0
Bit depth : 8 bits
Scan type : Progressive
Compression mode : Lossy
Bits/(Pixel*Frame) : 0.163
Stream size : 401 MiB (93%)
Language : English (US)

Audio
ID : 1
Format : WMA
Format version : Version 2
Codec ID : 161
Codec ID/Info : Windows Media Audio
Description of the codec : Windows Media Audio 9.2 - 128 kbps, 44 kHz, stereo 2-pass VBR
Duration : 28mn 1s
Bit rate mode : Variable
Bit rate : 128 Kbps
Channel(s) : 2 channels
Sampling rate : 44.1 KHz
Bit depth : 16 bits
Stream size : 25.7 MiB (6%)
Language : English (US)

Download utorrent client from http://www.utorrent.com/ before downloading from below magnet link

magnet:?xt=urn:btih:B4FE51D3396DEFFDB4A3783AC8D1093209FA5200


Melanie jane atk hardcore Fast Download



 
 
 
Dear visitor, you went to the site as an unregistered user. We encourage you to register or enter the site under your name.
 
   
 
 (Votes #: 0)