2013Zone For Latest Downloads

 
     
 
Legal Downloads » Torrents » Wrath of the Titans.2012.TELESYNC.XviD-HOPE
Menu
Home Applications
Games Movies
Music TV Shows
Torrents Graphics

Sitemap

RSS
 
Advanced Search
Last News
Site Info
Top Contributors:
  1    supper88 32766
  2    admin 32723
  3    Whisky 10080
  4    Shark_ 8911
  5    creativelivenew 8706
  6    whathesupa 2799
  7    candymypost 840
  8    hvnteam 629
  9    vuong87 3


Articles:
  This Hour: 0
  Today: 0
  This Month: 31
  All Time: 515496


Torrents:
  Today: 0
  Yesterday: 0
  All Time: 156680


Membership:
  Registered Today :0
  This Hour:0
  This Month:0
  Total:14
  Banned:1

{online}
{inform_torrent}
Friend:
Full Download Scripts
Torrent Download
Trend
Trend

Search In Site

Torrents : Wrath of the Titans.2012.TELESYNC.XviD-HOPE
 

Torrent name:Wrath of the Titans.2012.TELESYNC.XviD-HOPE

Seeds:0

Leechers:0

Health: 

Total size:905.86 MB

Torrent added:2012-04-11 19:51:28

Info hash:6C68C55715FC82FC9A75CF93C0BCFE8D1B7E8B5E


Description:
 

Wrath of the Titans.2012.TELESYNC.XviD-HOPE

 
http://www.imdb.com/title/tt1646987/


STATS:

Video
ID                                       : 0
Format                                   : MPEG-4 Visual
Format profile                           : Advanced [email protected]
Format settings, BVOP                    : 2
Format settings, QPel                    : No
Format settings, GMC                     : No warppoints
Format settings, Matrix                  : Default (MPEG)
Muxing mode                              : Packed bitstream
Codec ID                                 : TELESYNC
Codec ID/Hint                            : TELESYNC
Duration                                 : 1h 30mn
Bit rate                                 : 2 042 Kbps
Width                                    : 720 pixels
Height                                   : 384 pixels
Display aspect ratio                     : 1.875
Frame rate                               : 25.000 fps
Color space                              : YUV
Chroma subsampling                       : 4:2:0
Bit depth                                : 8 bits
Scan type                                : Progressive
Compression mode                         : Lossy
Bits/(Pixel*Frame)                       : 0.295
Stream size                              : 1.29 GiB (97%)
Writing library                          : XviD 64

Audio
ID                                       : 1
Format                                   : MPEG Audio
Codec ID                                 : 55
Codec ID/Hint                            : MP3
Duration                                 : 1h 30mn
Bit rate                                 : 64.0 Kbps
Channel(s)                               : 1 channel
Sampling rate                            : 22.05 KHz
Compression mode                         : Lossy
Stream size                              : 41.4 MiB (3%)
Alignment                                : Split accross interleaves
Interleave, duration                     : 40 ms (1.00 video frame)
Interleave, preload duration             : 500 ms


Plot:

Perseus braves the treacherous underworld to rescue his father, Zeus, 

captured by his son, Ares, and brother Hades who unleash the ancient 

Titans upon the world.

Genre:

Action | Adventure | Fantasy

Stars:

Sam Worthington, Liam Neeson and Rosamund Pike

Director:

Jonathan Liebesman

Download utorrent client from http://www.utorrent.com/ before downloading from below magnet link

magnet:?xt=urn:btih:6C68C55715FC82FC9A75CF93C0BCFE8D1B7E8B5E


Wrath of the Titans.2012.TELESYNC.XviD-HOPE Fast Download



 
 
 
Dear visitor, you went to the site as an unregistered user. We encourage you to register or enter the site under your name.
 
   
 
 (Votes #: 0)