2013Zone For Latest Downloads

 
     
 
Legal Downloads » Torrents » Sherlock.Holmes.A.Game.of.Shadows.2011.BRRip.Xvid.AC3-ADTRG
Menu
Home Applications
Games Movies
Music TV Shows
Torrents Graphics

Sitemap

RSS
 
Advanced Search
Last News
Site Info
Top Contributors:
  1    supper88 32766
  2    admin 32671
  3    Whisky 10080
  4    Shark_ 8911
  5    creativelivenew 8706
  6    whathesupa 2799
  7    candymypost 840
  8    hvnteam 629
  9    vuong87 3


Articles:
  This Hour: 0
  Today: 0
  This Month: 20
  All Time: 515636


Torrents:
  Today: 0
  Yesterday: 0
  All Time: 156702


Membership:
  Registered Today :0
  This Hour:0
  This Month:0
  Total:14
  Banned:1

{online}
{inform_torrent}
Friend:
We Recomend
Trend
Trend

Search In Site

Torrents : Sherlock.Holmes.A.Game.of.Shadows.2011.BRRip.Xvid.AC3-ADTRG
 

Torrent name:Sherlock.Holmes.A.Game.of.Shadows.2011.BRRip.Xvid.AC3-ADTRG

Seeds:11

Leechers:9

Health: 

Total size:1.99 GB

Torrent added:2012-04-16 23:22:50

Info hash:1746DF092AB7C65D924A8801234F401160B65777


Description:
 

.
..............................Site Info...........................

 -   http://www.scenetime.com  *_*   


Scenetime .Always on time . friendly online private torrent community ..

     We care to share . Join us on  http://www.scenetime.com 

    Be the first to get new release at  http://www.scenetime.com

        Seed back for speed


...................................NFO:.................................................http://i.imgur.com/6YC5F.jpg[img][/img]

[b]Sherlock.Holmes.A.Game.of.Shadows.2011.BRRip.Xvid.AC3-ADTRG[/b]

Sherlock Holmes and his sidekick Dr. Watson join forces to outwit and bring down their fiercest adversary, Professor Moriarty.  

[url]http://www.imdb.com/title/tt1515091/[/url]

Source -  Sherlock Holmes A Game of Shadows 2011 1080p BluRay x264-UNVEiL   Thanks

Complete name                            : Sherlock.Holmes.A.Game.of.Shadows.2011.BRRip.Xvid.AC3-ADTRG.avi
Format                                   : AVI
Format/Info                              : Audio Video Interleave
File size                                : 1.96 GiB
Duration                                 : 2h 8mn
Overall bit rate                         : 2 186 Kbps

Video
ID                                       : 0
Format                                   : MPEG-4 Visual
Codec ID                                 : XVID
Duration                                 : 2h 8mn
Bit rate                                 : 1 795 Kbps
Width                                    : 720 pixels
Height                                   : 304 pixels
Display aspect ratio                     : 2.35:1
Frame rate                               : 23.976 fps
Stream size                              : 1.61 GiB (82%)

Audio
ID                                       : 1
Format                                   : AC-3
Bit rate                                 : 384 Kbps
Channel(s)                               : 6 channels
Channel positions                        : Front: L C R, Side: L R, LFE
Sampling rate                            : 48.0 KHz
Stream size                              : 353 MiB (18%)



Encoder - LiMeY
Good things come in small packages, So feel the wrath of my compression

[img]http://i.imgur.com/gAg0Q.jpg[/img]


[IMG]http://i.imgur.com/2739o.gif?1?8830[/IMG]

Dont fear the Atomic Dragon, Embrace it  :)


Greetz to DragonMaster,cOOkies,Mr Geek,DBratt420,AnimeKing,Cush,NoWoRRiEs Rayne, Mr & Mrs IrNbRu and the rest of the crew

Respect to CM8,Goon,Hope,mSD,InfernO,legend-rg and maybe a few more ;)

Download utorrent client from http://www.utorrent.com/ before downloading from below magnet link

magnet:?xt=urn:btih:1746DF092AB7C65D924A8801234F401160B65777


 
 
 
Dear visitor, you went to the site as an unregistered user. We encourage you to register or enter the site under your name.
 
   
 
 (Votes #: 0)