2013Zone For Latest Downloads

 
     
 
Legal Downloads » Torrents » American.Pie.Reunion.2012.TS.XViD-Voodoo
Menu
Home Applications
Games Movies
Music TV Shows
Torrents Graphics

Sitemap

RSS
 
Advanced Search
Last News
Site Info
Top Contributors:
  1    supper88 32766
  2    admin 32671
  3    Whisky 10080
  4    Shark_ 8911
  5    creativelivenew 8706
  6    whathesupa 2799
  7    candymypost 840
  8    hvnteam 629
  9    vuong87 3


Articles:
  This Hour: 0
  Today: 0
  This Month: 40
  All Time: 515636


Torrents:
  Today: 0
  Yesterday: 0
  All Time: 156702


Membership:
  Registered Today :0
  This Hour:0
  This Month:0
  Total:14
  Banned:1

{online}
{inform_torrent}
Friend:
We Recomend
Trend
Trend

Search In Site

Torrents : American.Pie.Reunion.2012.TS.XViD-Voodoo
 

Torrent name:American.Pie.Reunion.2012.TS.XViD-Voodoo

Seeds:3

Leechers:3

Health: 

Total size:694.89 MB

Torrent added:2012-04-16 17:50:14

Info hash:E07D59202459AC45FE8F841C4277382ED2761C91


Description:
 

Encoder ..........: BoobyBlue
Video Codec.......: XVID
Video Bitrate.....: 2 205 Kbps
Audio Codec.......: MP3
Audio Bitrate.....: 320 Kbps
Resolution........: 720 x 320
Runtime...........: 1h 30mn
Release Date......: NA
Theatre Date......: 6 April 2012 (USA)
Language..........: English
Subtitles.........: No
IMDB Rating.......: 7.7/10
IMDb URL..........: http://www.imdb.com/title/tt1605630/

General
General
Complete name : C:UsersCrEwSaDeDesktopAmerican Pie Reunion 2012 TS XViD CrEwSaDeAmerican Pie Reunion 2012 TS XViD CrEwSaDe.avi
Format : AVI
Format/Info : Audio Video Interleave
File size : 1.60 GiB
Duration : 1h 30mn
Overall bit rate : 2 538 Kbps
Writing library : TMPGEnc 4.0 XPress Version. 4.7.3.292

Video
Video
ID : 0
Format : MPEG-4 Visual
Format profile : Advanced [email protected]
Format settings, BVOP : 2
Format settings, QPel : No
Format settings, GMC : No warppoints
Format settings, Matrix : Default (H.263)
Muxing mode : Packed bitstream
Codec ID : XVID
Codec ID/Hint : XviD
Duration : 1h 30mn
Bit rate : 2 205 Kbps
Width : 720 pixels
Height : 320 pixels
Display aspect ratio : 2.25:1
Frame rate : 25.000 fps
Color space : YUV
Chroma subsampling : 4:2:0
Bit depth : 8 bits
Scan type : Progressive
Compression mode : Lossy
Bits/(Pixel*Frame) : 0.383
Stream size : 1.39 GiB (87%)
Writing library : XviD 64

Audio
Audio
ID : 1
Format : MPEG Audio
Format version : Version 1
Format profile : Layer 3
Codec ID : 55
Codec ID/Hint : MP3
Duration : 1h 30mn
Bit rate mode : Constant
Bit rate : 320 Kbps
Channel(s) : 2 channels
Sampling rate : 48.0 KHz
Compression mode : Lossy
Stream size : 207 MiB (13%)
Alignment : Aligned on interleaves
Interleave, duration : 40 ms (1.00 video frame)
Interleave, preload duration : 408 ms

SOURCES:

VIDEO: ELEKTRI4KA
AUDIO: American Reunion 2012 TS Xvid -AT

Plot:
Over a decade has passed and the gang return to East Great Falls, Michigan, for the weekend. They will discover how their lives have developed as they gather for their high school reunion. How has life treated Michelle, Jim, Heather, Oz, Kevin, Vicky, Finch, Stifler, and Stifler's mom? In the summer of 1999, it was four boys on a quest to lose their virginity. Now Kara is a cute high school senior looking for the perfect guy to lose her virginity to.

Download utorrent client from http://www.utorrent.com/ before downloading from below magnet link

magnet:?xt=urn:btih:E07D59202459AC45FE8F841C4277382ED2761C91


 
 
 
Dear visitor, you went to the site as an unregistered user. We encourage you to register or enter the site under your name.
 
   
 
 (Votes #: 0)