2013Zone For Latest Downloads

 
     
 
Legal Downloads » Torrents » The Amazing Spiderman Eng 2012 DVDRip
Menu
Home Applications
Games Movies
Music TV Shows
Torrents Graphics

Sitemap

RSS
 
Advanced Search
Last News
Site Info
Top Contributors:
  1    supper88 32767
  2    admin 32713
  3    Whisky 10093
  4    creativelivenew 8706
  5    Shark_ 7982
  6    whathesupa 2802
  7    candymypost 840
  8    hvnteam 629
  9    vuong87 3


Articles:
  This Hour: 43
  Today: 956
  This Month: 13912
  All Time: 534858


Torrents:
  Today: 0
  Yesterday: 0
  All Time: 159319


Membership:
  Registered Today :0
  This Hour:0
  This Month:0
  Total:14
  Banned:0

{online}
{inform_torrent}
Friend:
free mp3
Calendar
Calendar

Search In Site

Torrents : The Amazing Spiderman Eng 2012 DVDRip
 

Torrent name:The Amazing Spiderman Eng 2012 DVDRip

Seeds:8291

Leechers:1046

Health: 

Total size:805.02 MB

Torrent added:2012-04-13 01:57:26

Info hash:E04DB2472DB9150F6668CBDC65C31AA52688A580


Description:
 

-------------------------------------------------------------------
Please share....Dont hit and run...Seed it back at least once.

Of course, if you want to seed it back more than once, that would be ok too :)
-------------------------------------------------------------------	

QUALITY:  PERFECT 10/10

All details are here: 

Format  | AVI           Language | ENGLISH  
Source  | DVD PAL       Subs     | NONE 

QUALITY:  PERFECT 10/10

- Video
ID                               : 0
Format                           : MPEG-4 Visual
Format profile                   : Advanced Simple@L5
Format settings, BVOP            : Yes
Format settings, QPel            : No
Format settings, GMC             : No warppoints
Format settings, Matrix          : Default (H.263)
Muxing mode                      : Packed bitstream
Codec ID                         : XVID
Codec ID/Hint                    : XviD
Bit rate                         : 1 345 Kbps
Width                            : 720 pixels
Height                           : 314 pixels
Display aspect ratio             : 2.25:1
Frame rate                       : 29.970 fps
Color space                      : YUV
Chroma subsampling               : 4:2:0
Bit depth                        : 8 bits
Scan type                        : Progressive
Compression mode                 : Lossy
Bits/(Pixel*Frame)               : 0.198
Stream size                      : 1.19 GiB (87%)
Writing library                  : XviD 1.1.0 (UTC 2005-11-22)

- Audio
ID                               : 1
Format                           : AC-3
Format/Info                      : Audio Coding 3
Mode extension                   : CM (complete main)
Codec ID                         : 2000
Bit rate mode                    : Constant
Bit rate                         : 192 Kbps
Channel(s)                       : 2 channels
Channel positions                : Front: L R
Sampling rate                    : 48.0 KHz
Bit depth                        : 16 bits
Compression mode                 : Lossy
Stream size                      : 175 MiB (12%)
Alignment                        : Aligned on interleaves
Interleave, duration             : 33 ms (1.00 video frame)
Interleave, preload duration     : 512 ms

Download Link 1:torrage.com/torrent/E04DB2472DB9150F6668CBDC65C31AA52688A580.torrent

Download Link 2:torcache.net/torrent/E04DB2472DB9150F6668CBDC65C31AA52688A580.torrent


The Amazing Spiderman Eng 2012 DVDRip Fast Download



 
 
 
Dear visitor, you went to the site as an unregistered user. We encourage you to register or enter the site under your name.
 
   
 
 (Votes #: 0)