2013Zone For Latest Downloads

 
     
 
Legal Downloads » Torrents » God Bless America 2011 XVID AC3 HQ [avrumi]
Menu
Home Applications
Games Movies
Music TV Shows
Torrents Graphics

Sitemap

RSS
 
Advanced Search
Last News
Site Info
Top Contributors:
  1    supper88 32766
  2    admin 32671
  3    Whisky 10080
  4    Shark_ 8911
  5    creativelivenew 8706
  6    whathesupa 2799
  7    candymypost 840
  8    hvnteam 629
  9    vuong87 3


Articles:
  This Hour: 0
  Today: 0
  This Month: 40
  All Time: 515636


Torrents:
  Today: 0
  Yesterday: 0
  All Time: 156702


Membership:
  Registered Today :0
  This Hour:0
  This Month:0
  Total:14
  Banned:1

{online}
{inform_torrent}
Friend:
We Recomend
Trend
Trend

Search In Site

Torrents : God Bless America 2011 XVID AC3 HQ [avrumi]
 

Torrent name:God Bless America 2011 XVID AC3 HQ [avrumi]

Seeds:2

Leechers:1

Health: 

Total size:1.54 GB

Torrent added:2012-04-18 07:12:24

Info hash:A64B7DD13A947A4903163072907D39083EC22DD8


Description:
 

http://img441.imageshack.us/img441/3935/godblessamerica2011movi.jpg

God.Bless.America.2011.HDRiP.XVID.AC3.HQ.Hive-CM8


Video: 720x304 @bitrate 1700 2pass
Audio: English AC3 5.1 @384
Sample: Yes, included[/b] 
http://www.imdb.com/title/tt1912398/

General
Complete name: God.Bless.America.2011.HDRiP.XVID.AC3.HQ.Hive-CM8.avi
Format: AVI
Format/Info: Audio Video Interleave
File size: 1.53 GiB
Duration: 1h 44mn
Overall bit rate: 2 093 Kbps
Writing application: Nandub v1.0rc2
Writing library: Nandub build 1853/release

Video
ID: 0
Format: MPEG-4 Visual
Format profile: Advanced [email protected]
Format settings, BVOP: 2
Format settings, QPel: Yes
Format settings, GMC: No warppoints
Format settings, Matrix: Default (H.263)
Muxing mode: Packed bitstream
Codec ID: XVID
Codec ID/Hint: XviD
Duration: 1h 44mn
Bit rate: 1 700 Kbps
Width: 720 pixels
Height: 304 pixels
Display aspect ratio: 2.35:1
Frame rate: 23.976 fps
Color space: YUV
Chroma subsampling: 4:2:0
Bit depth: 8 bits
Scan type: Progressive
Compression mode: Lossy
Bits/(Pixel*Frame): 0.324
Stream size: 1.24 GiB (81%)
Writing library: XviD 1.2.1 (UTC 2008-12-04)

Audio
ID: 1
Format: AC-3
Format/Info: Audio Coding 3
Mode extension: CM (complete main)
Codec ID: 2000
Duration: 1h 44mn
Bit rate mode: Constant
Bit rate: 384 Kbps
Channel(s): 6 channels
Channel positions: Front: L C R, Side: L R, LFE
Sampling rate: 48.0 KHz
Bit depth: 16 bits
Compression mode: Lossy
Delay relative to video: 50ms
Stream size: 287 MiB (18%)
Alignment: Split accross interleaves
Interleave, duration: 42 ms (1.00 video frame)
Interleave, preload duration: 500 ms

[plot]
Fed up with the cruelty and stupidity of American culture, an unlikely duo
teams up to whack reality TV stars, bigots and others they find repugnant

[cast]

Joel Murray ... Frank
Tara Lynne Barr ... Roxy
Mackenzie Brooke Smith ... Ava
Melinda Page Hamilton ... Alison 

[screens] 
http://img543.imageshack.us/img543/4355/42870537.png 
http://img36.imageshack.us/img36/89/gbgb.png 
http://img217.imageshack.us/img217/1289/ggbbgb.png 
http://img839.imageshack.us/img839/3339/ggbbgbgb.png  
http://img401.imageshack.us/img401/8435/ggbbgbggbb.png 
http://img15.imageshack.us/img15/8981/ggbbgbggbgbb.png 
http://img515.imageshack.us/img515/9821/ggbbgbggbgbgbb.png 
http://img853.imageshack.us/img853/6313/ggbbgbggbgbgbgbb.png 
http://img713.imageshack.us/img713/7638/ggbb.png

Download utorrent client from http://www.utorrent.com/ before downloading from below magnet link

magnet:?xt=urn:btih:A64B7DD13A947A4903163072907D39083EC22DD8


 
 
 
Dear visitor, you went to the site as an unregistered user. We encourage you to register or enter the site under your name.
 
   
 
 (Votes #: 0)