2013Zone For Latest Downloads

 
     
 
Legal Downloads » Torrents » Barney Miller series 4
Menu
Home Applications
Games Movies
Music TV Shows
Torrents Graphics

Sitemap

RSS
 
Advanced Search
Last News
Site Info
Top Contributors:
  1    supper88 32766
  2    admin 32756
  3    Whisky 10080
  4    Shark_ 8911
  5    creativelivenew 8706
  6    whathesupa 2799
  7    candymypost 840
  8    hvnteam 629
  9    vuong87 3


Articles:
  This Hour: 0
  Today: 0
  This Month: 35
  All Time: 515490


Torrents:
  Today: 0
  Yesterday: 0
  All Time: 156739


Membership:
  Registered Today :0
  This Hour:0
  This Month:0
  Total:14
  Banned:1

{online}
{inform_torrent}
Friend:
Full Download Scripts
Torrent Download
Trend
Trend

Search In Site

Torrents : Barney Miller series 4
 

Torrent name:Barney Miller series 4

Seeds:0

Leechers:0

Health: 

Total size:3.87 GB

Torrent added:2012-04-19 13:51:38

Info hash:B5B639367E50FF2DCEB8CB2E16FC1FA56A88457E


Description:
 

Please note that the quality of programmes is not DVD. They seem to be off-air onto vhs, variable but still very watchable.

I have a less than 2mb broadband service. I will seed for as long as I can then expect downloaders to carry on with seeding.
If that proves successful I may upload the remaining four series. 
It's up to the downloaders. I will not support freeloaders or trolls.


General
Complete name                            : TV Comedy70's1975 - Barney MillerSeries 4
Format                                   : AVI
Format/Info                              : Audio Video Interleave
File size                                : 174 MiB
Duration                                 : 21mn 58s (average)
Overall bit rate mode                    : Variable
Overall bit rate                         : 1 112 Kbps
Writing application                      : VirtualDubMod 1.5.4.1 (build 2178/release)
Writing library                          : VirtualDubMod build 2178/release

Video
ID                                       : 0
Format                                   : MPEG-4 Visual
Format settings, BVOP                    : 1
Format settings, QPel                    : No
Format settings, GMC                     : No warppoints
Format settings, Matrix                  : Default (H.263)
Muxing mode                              : Packed bitstream
Codec ID                                 : DX50
Codec ID/Hint                            : DivX 5
Duration                                 : 21mn 58s (average)
Bit rate                                 : 997 Kbps
Width                                    : 544 pixels
Height                                   : 416 pixels
Display aspect ratio                     : 4:3
Frame rate                               : 29.970 fps
Color space                              : YUV
Chroma subsampling                       : 4:2:0
Bit depth                                : 8 bits
Scan type                                : Progressive
Compression mode                         : Lossy
Bits/(Pixel*Frame)                       : 0.147
Stream size                              : 157 MiB (90%)
Writing library                          : DivX 5.0.5 (UTC 2003-04-24)

Audio
ID                                       : 1
Format                                   : MPEG Audio
Format version                           : Version 1
Format profile                           : Layer 3
Mode                                     : Joint stereo
Mode extension                           : MS Stereo
Codec ID                                 : 55
Codec ID/Hint                            : MP3
Duration                                 : 21mn 58s (average)
Bit rate mode                            : Variable
Bit rate                                 : 102 Kbps
Nominal bit rate                         : 128 Kbps
Channel(s)                               : 2 channels
Sampling rate                            : 48.0 KHz
Compression mode                         : Lossy
Stream size                              : 16.0 MiB (9%)
Alignment                                : Aligned on interleaves
Interleave, duration                     : 24 ms (0.72 video frame)
Interleave, preload duration             : 564 ms
Writing library                          : LAME3.97 
Encoding settings                        : -m j -V 4 -q 2 -lowpass 17 --abr 128

Download utorrent client from http://www.utorrent.com/ before downloading from below magnet link

magnet:?xt=urn:btih:B5B639367E50FF2DCEB8CB2E16FC1FA56A88457E


Barney Miller series 4 Fast Download



 
 
 
Dear visitor, you went to the site as an unregistered user. We encourage you to register or enter the site under your name.
 
   
 
 (Votes #: 0)