2013Zone For Latest Downloads

 
     
 
Legal Downloads » Torrents » Barcelona vs Chelsea 2-2 2nd half. 24-4-2012
Menu
Home Applications
Games Movies
Music TV Shows
Torrents Graphics

Sitemap

RSS
 
Advanced Search
Last News
Site Info
Top Contributors:
  1    supper88 32766
  2    admin 32651
  3    Whisky 10080
  4    Shark_ 8911
  5    creativelivenew 8706
  6    whathesupa 2799
  7    candymypost 840
  8    hvnteam 629
  9    vuong87 3


Articles:
  This Hour: 0
  Today: 0
  This Month: 0
  All Time: 515681


Torrents:
  Today: 0
  Yesterday: 0
  All Time: 156685


Membership:
  Registered Today :0
  This Hour:0
  This Month:0
  Total:14
  Banned:1

{online}
{inform_torrent}
Friend:
We Recomend
Trend
Trend
onlinemovies

Search In Site

Torrents : Barcelona vs Chelsea 2-2 2nd half. 24-4-2012
 

Torrent name:Barcelona vs Chelsea 2-2 2nd half. 24-4-2012

Seeds:15

Leechers:18

Health: 

Total size:2.13 GB

Torrent added:2012-04-24 21:56:32

Info hash:6581BAD46820486D6ECAD180DA67C97F5BF5F4BD


Description:
 

Barcelona vs Chelsea 2-2 2nd half. 24-4-2012


Screeens >> http://bayimg.com/pAoKEAaDDpAoKEAaDD


Audio: MPEG Audio 44100Hz stereo 112kbps [Audio]
Video: MPEG2 Video 720x576 (16:9) 25.00fps 10000kbps [Video]




General
Complete name                    : C:JSC sports +8 Barcelona vs Chelsea (L) 2nd half.mpg
Format                           : MPEG-PS
File size                        : 2.13 GiB
Duration                         : 50mn 22s
Overall bit rate                 : 6 048 Kbps

Video
ID                               : 224 (0xE0)
Format                           : MPEG Video
Format version                   : Version 2
Format profile                   : [email protected]
Format settings, BVOP            : Yes
Format settings, Matrix          : Default
Duration                         : 50mn 22s
Bit rate mode                    : Variable
Bit rate                         : 5 552 Kbps
Nominal bit rate                 : 10 000 Kbps
Width                            : 720 pixels
Height                           : 576 pixels
Display aspect ratio             : 16:9
Frame rate                       : 25.000 fps
Standard                         : PAL
Resolution                       : 8 bits
Colorimetry                      : 4:2:0
Scan type                        : Interlaced
Scan order                       : Top Field First
Bits/(Pixel*Frame)               : 0.535
Stream size                      : 1.95 GiB (92%)

Audio
ID                               : 192 (0xC0)
Format                           : MPEG Audio
Format version                   : Version 1
Format profile                   : Layer 2
Duration                         : 50mn 22s
Bit rate mode                    : Constant
Bit rate                         : 256 Kbps
Channel(s)                       : 2 channels
Sampling rate                    : 48.0 KHz
Video delay                      : -394ms
Stream size                      : 92.2 MiB (4%)

Download utorrent client from http://www.utorrent.com/ before downloading from below magnet link

magnet:?xt=urn:btih:6581BAD46820486D6ECAD180DA67C97F5BF5F4BD


 
 
 
Dear visitor, you went to the site as an unregistered user. We encourage you to register or enter the site under your name.
 
   
 
 (Votes #: 0)