2013Zone For Latest Downloads

 
     
 
Legal Downloads » Torrents » Aeon Flux =Special Collector's Edition= [2005]
Menu
Home Applications
Games Movies
Music TV Shows
Torrents Graphics

Sitemap

RSS
 
Advanced Search
Last News
Site Info
Top Contributors:
  1    supper88 32766
  2    admin 32658
  3    Whisky 10080
  4    Shark_ 8911
  5    creativelivenew 8706
  6    whathesupa 2799
  7    candymypost 840
  8    hvnteam 629
  9    vuong87 3


Articles:
  This Hour: 0
  Today: 0
  This Month: 18
  All Time: 515669


Torrents:
  Today: 0
  Yesterday: 0
  All Time: 156685


Membership:
  Registered Today :0
  This Hour:0
  This Month:0
  Total:14
  Banned:1

{online}
{inform_torrent}
Friend:
We Recomend
Trend
Trend
onlinemovies

Search In Site

Torrents : Aeon Flux =Special Collector's Edition= [2005]
 

Torrent name:Aeon Flux =Special Collector's Edition= [2005]

Seeds:0

Leechers:0

Health: 

Total size:1.39 GB

Torrent added:2012-04-25 01:22:31

Info hash:8EADEFF0D58B07804A8CF984C21E55921C772A17


Description:
 

***********************************************************************************
                 Aeon Flux (├ćon Flux) =Special Collector's Edition= [2005]
Aeon Flux is a mysterious assassin working for the Monicans, a group of rebels trying to overthrow the government. When she is a sent on a mission to kill the Chairman, a whole new mystery is found.

Director:
Karyn Kusama
Writers:
Phil Hay, Matt Manfredi
Stars:
Charlize Theron, Frances McDormand and Sophie Okonedo 
***********************************************************************************
Format                                   : Matroska
Format version                           : Version 2
File size                                : 1.00 GiB
Duration                                 : 1h 32mn
Overall bit rate                         : 1 548 Kbps

Video
Format                                   : AVC
Format/Info                              : Advanced Video Codec
Format profile                           : [email protected]
Duration                                 : 1h 32mn
Bit rate                                 : 1 070 Kbps
Width                                    : 720 pixels
Height                                   : 368 pixels
Display aspect ratio                     : 2.35:1
Original display aspect ratio            : 2.35:1
Frame rate mode                          : Variable
Frame rate                               : 23.976 fps
Stream size                              : 711 MiB (69%)
Writing library                          : x264 core 120
Language                                 : English
Default                                  : Yes
Forced                                   : No

Audio
Format                                   : AC-3
Format/Info                              : Audio Coding 3
Codec ID                                 : A_AC3
Duration                                 : 1h 32mn
Bit rate                                 : 448 Kbps
Channel(s)                               : 6 channels
Sampling rate                            : 48.0 KHz
Bit depth                                : 16 bits
Compression mode                         : Lossy
Stream size                              : 298 MiB (29%)
Language                                 : English
Default                                  : Yes
Forced                                   : No

***********************************************************************************
NOTE FOR MY MOVIE TORRENTS: Each movie/episode has been hashed with an MD5 checker and I am listing the hash below. 
***********************************************************************************
Movie MD5:  B603CEF2A81BF489D2F62A79CA0892F8
Featurette: 55BEDE904EE0B51DAB96F062ED7DCE87
----------------------------------------------------------------------------------
MD5 Checker for Linux:  http://sinf.gr/en/hashcalc.html
MD5 Checker for Windows:  http://getmd5checker.com/ 
-----------------------------------------------------------------------------------
 This was personally encoded by me, Carjacker,from the Special Collector's Edition. I have included one of the 5 Featurettes from the disc- the one I thought most interesting. ;p
Leave your thoughts/opinions and ratings on the A/V of this film for others to see. Thanks! 
Pease SEED as you DL so others may also enjoy the movie! 
**Requests are welcome!

Download utorrent client from http://www.utorrent.com/ before downloading from below magnet link

magnet:?xt=urn:btih:8EADEFF0D58B07804A8CF984C21E55921C772A17


 
 
 
Dear visitor, you went to the site as an unregistered user. We encourage you to register or enter the site under your name.
 
   
 
 (Votes #: 0)