2013Zone For Latest Downloads

 
     
 
Legal Downloads » Torrents » American Reunion 2012 CAM XViD - INSPiRAL
Menu
Home Applications
Games Movies
Music TV Shows
Torrents Graphics

Sitemap

RSS
 
Advanced Search
Last News
Site Info
Top Contributors:
  1    supper88 32766
  2    admin 32651
  3    Whisky 10080
  4    Shark_ 8911
  5    creativelivenew 8706
  6    whathesupa 2799
  7    candymypost 840
  8    hvnteam 629
  9    vuong87 3


Articles:
  This Hour: 0
  Today: 0
  This Month: 0
  All Time: 515681


Torrents:
  Today: 0
  Yesterday: 0
  All Time: 156685


Membership:
  Registered Today :0
  This Hour:0
  This Month:0
  Total:14
  Banned:1

{online}
{inform_torrent}
Friend:
We Recomend
Trend
Trend
onlinemovies

Search In Site

Torrents : American Reunion 2012 CAM XViD - INSPiRAL
 

Torrent name:American Reunion 2012 CAM XViD - INSPiRAL

Seeds:12

Leechers:56

Health: 

Total size:750.78 MB

Torrent added:2012-04-25 00:24:52

Info hash:5890CBA5F2C1EAFEA325C72C7270AD82BD406246


Description:
 

Jim, Michelle, Stifler, and their friends reunite in East Great Falls, Michigan for their high school reunion. 

SOURCES:

VIDEO - RIPRG THANKS
AUDIO - RIPRG THANKS
SUBS - None Add

STATS:

Video
ID : 0
Format : MPEG-4 Visual
Format profile : Advanced [email protected]
Format settings, BVOP : 2
Format settings, QPel : No
Format settings, GMC : No warppoints
Format settings, Matrix : Default (MPEG)
Muxing mode : Packed bitstream
Codec ID : XVID
Codec ID/Hint : XviD
Duration : 1h 44mn
Bit rate : 887 Kbps
Width : 720 pixels
Height : 368 pixels
Display aspect ratio : 1.957
Frame rate : 29.970 fps
Color space : YUV
Chroma subsampling : 4:2:0
Bit depth : 8 bits
Scan type : Progressive
Compression mode : Lossy
Bits/(Pixel*Frame) : 0.112
Stream size : 662 MiB (90%)
Writing library : XviD 64

Audio
ID : 1
Format : MPEG Audio
Format version : Version 1
Format profile : Layer 3
Mode : Joint stereo
Mode extension : MS Stereo
Codec ID : 55
Codec ID/Hint : MP3
Duration : 1h 44mn
Bit rate mode : Variable
Bit rate : 90.6 Kbps
Minimum bit rate : 32.0 Kbps
Channel(s) : 2 channels
Sampling rate : 32.0 KHz
Compression mode : Lossy
Stream size : 67.7 MiB (9%)
Alignment : Aligned on interleaves
Interleave, duration : 36 ms (1.08 video frame)
Interleave, preload duration : 464 ms
Writing library : LAME3.98r
Encoding settings : -m j -V 7 -q 2 -lowpass 14.5 --vbr-new -b 32


NOTES:

Simple re-encode of the RiPRG release ...done a few tweaks here and there.
Changing contrast,brightness,sharpness,rgb colours and also used a smoother...
Audio untouched.

Dam just grabbed this and whilst its nice audio ....just checked the sample and you cam here someone laugh,so pretty sure its cam audio.
Oh well outta here tonight so will see about syncing that line audio off ADTRG later.

Download utorrent client from http://www.utorrent.com/ before downloading from below magnet link

magnet:?xt=urn:btih:5890CBA5F2C1EAFEA325C72C7270AD82BD406246


 
 
 
Dear visitor, you went to the site as an unregistered user. We encourage you to register or enter the site under your name.
 
   
 
 (Votes #: 0)