2013Zone For Latest Downloads

 
     
 
Legal Downloads » Torrents » Rychly Prachy (PRAHA - 21.04.2012) - Nikola
Menu
Home Applications
Games Movies
Music TV Shows
Torrents Graphics

Sitemap

RSS
 
Advanced Search
Last News
Site Info
Top Contributors:
  1    supper88 32767
  2    admin 32713
  3    Whisky 10093
  4    creativelivenew 8706
  5    Shark_ 7982
  6    whathesupa 2802
  7    candymypost 840
  8    hvnteam 629
  9    vuong87 3


Articles:
  This Hour: 17
  Today: 420
  This Month: 16599
  All Time: 442674


Torrents:
  Today: 0
  Yesterday: 0
  All Time: 159477


Membership:
  Registered Today :0
  This Hour:0
  This Month:0
  Total:14
  Banned:0

{online}
{inform_torrent}
Friend:
free mp3
Calendar
Calendar

Search In Site

Torrents : Rychly Prachy (PRAHA - 21.04.2012) - Nikola
 

Torrent name:Rychly Prachy (PRAHA - 21.04.2012) - Nikola

Seeds:8

Leechers:4

Health: 

Total size:308.91 MB

Torrent added:2012-04-26 10:01:44

Info hash:B95C86455FD25F49697FAF6B78935F62180953ED


Description:
 

Rychly Prachy (PRAHA - 21.04.2012) - Nikola

  Without advertising!

Screen:          http://image.bayimg.com/eaocpaade.jpg
Oficial website: http://rychlyprachy.cz
Direct Link:     http://rychlyprachy.cz/video60.cz.html



General
Complete name                            : Rychly Prachy (PRAHA - 21.04.2012) - Nikola.wmv
Format                                   : Windows Media
File size                                : 309 MiB
Duration                                 : 16mn 23s
Overall bit rate mode                    : Constant
Overall bit rate                         : 2 634 Kbps
Maximum Overall bit rate                 : 2 645 Kbps
Encoded date                             : UTC 2012-04-20 23:40:52.580
SfOriginalFPS                            : 300000

Video
ID                                       : 2
Format                                   : VC-1
Format profile                           : MP@ML
Codec ID                                 : WMV3
Codec ID/Info                            : Windows Media Video 9
Codec ID/Hint                            : WMV3
Description of the codec                 : Windows Media Video 9 - Professional
Duration                                 : 16mn 23s
Bit rate mode                            : Constant
Bit rate                                 : 2 525 Kbps
Width                                    : 640 pixels
Height                                   : 480 pixels
Display aspect ratio                     : 4:3
Frame rate                               : 30.000 fps
Bit depth                                : 8 bits
Scan type                                : Progressive
Compression mode                         : Lossy
Bits/(Pixel*Frame)                       : 0.274
Stream size                              : 296 MiB (96%)
Language                                 : Czech

Audio
ID                                       : 1
Format                                   : WMA
Format version                           : Version 2
Codec ID                                 : 161
Codec ID/Info                            : Windows Media Audio
Description of the codec                 : Windows Media Audio 9.2 -  96 kbps, 44 kHz, stereo (A/V) 1-pass CBR
Duration                                 : 16mn 23s
Bit rate mode                            : Constant
Bit rate                                 : 96.0 Kbps
Channel(s)                               : 2 channels
Sampling rate                            : 44.1 KHz
Bit depth                                : 16 bits
Stream size                              : 11.3 MiB (4%)
Language                                 : Czech

Download Link 1:torrage.com/torrent/B95C86455FD25F49697FAF6B78935F62180953ED.torrent

Download Link 2:torcache.net/torrent/B95C86455FD25F49697FAF6B78935F62180953ED.torrent


Rychly Prachy (PRAHA - 21.04.2012) - Nikola Fast Download



 
 
 
Dear visitor, you went to the site as an unregistered user. We encourage you to register or enter the site under your name.
 
   
 
 (Votes #: 0)