2013Zone For Latest Downloads

 
     
 
Legal Downloads » Torrents » Think Like a Man (2012) DVDSRC.AC3.XViD.DARND
Menu
Home Applications
Games Movies
Music TV Shows
Torrents Graphics

Sitemap

RSS
 
Advanced Search
Last News
Site Info
Top Contributors:
  1    supper88 32766
  2    admin 32693
  3    Whisky 10080
  4    Shark_ 8911
  5    creativelivenew 8706
  6    whathesupa 2799
  7    candymypost 840
  8    hvnteam 629
  9    vuong87 3


Articles:
  This Hour: 0
  Today: 0
  This Month: 0
  All Time: 515561


Torrents:
  Today: 0
  Yesterday: 0
  All Time: 156684


Membership:
  Registered Today :0
  This Hour:0
  This Month:0
  Total:14
  Banned:1

{online}
{inform_torrent}
Friend:
We Recomend
Trend
Trend
Ad1

Search In Site

Torrents : Think Like a Man (2012) DVDSRC.AC3.XViD.DARND
 

Torrent name:Think Like a Man (2012) DVDSRC.AC3.XViD.DARND

Seeds:8

Leechers:5

Health: 

Total size:800.24 MB

Torrent added:2012-04-29 14:53:07

Info hash:B1AD936C108B29EEF7040B0931DE321E785FA543


Description:
 

IMDb: http://www.imdb.com/title/tt1621045/
------------------------------------------

Think Like a Man (2012) DVDSRC.AC3.XViD.DARND
----------------------------------------------


Screenshots:
-----------
------------------ 
http://imageshack.us/photo/my-images/208/56222623.jpg/ 
http://imageshack.us/photo/my-images/849/39428020.jpg/ 
http://imageshack.us/photo/my-images/718/59005405.jpg/ 
http://imageshack.us/photo/my-images/571/29085603.jpg/ 
http://imageshack.us/photo/my-images/207/44165092.jpg/ 
http://imageshack.us/photo/my-images/215/34574887.jpg/ 
http://imageshack.us/photo/my-images/210/36288348.jpg/ 
http://imageshack.us/photo/my-images/696/74362478.jpg/ 
http://imageshack.us/photo/my-images/546/61203078.jpg/ 
http://imageshack.us/photo/my-images/845/18969063.jpg/

Details:
-------

Video
ID                               : 0
Format                           : MPEG-4 Visual
Format profile                   : [email protected]
Format settings, BVOP            : Yes
Format settings, QPel            : No
Format settings, GMC             : No warppoints
Format settings, Matrix          : Custom
Codec ID                         : XVID
Codec ID/Hint                    : XviD
Duration                         : 2h 03mn
Bit rate                         : 1 625 Kbps
Width                            : 720 pixels
Height                           : 304 pixels
Display aspect ratio             : 2.35:1
Frame rate                       : 23.976 fps
Resolution                       : 24 bits
Colorimetry                      : 4:2:0
Scan type                        : Progressive
Bits/(Pixel*Frame)               : 0.310
Stream size                      : 690 MiB (99%)
Writing library                  : XviD 58

Audio
ID                               : 1
Format                           : AC-3
Format/Info                      : Audio Coding 3
Codec ID                         : 2000
Duration                         : 2h 03mn
Bit rate mode                    : Constant
Bit rate                         : 192 Kbps
Channel(s)                       : 2 channels
Channel positions                : L R
Sampling rate                    : 48.0 KHz
Stream size                      : 147 MiB (11%)
Alignment                        : Aligned on interleaves
Interleave, duration             : 64 ms (1.53 video frames)
Interleave, preload duration     : 192 ms
-----------------------------------------

Plot:
----

Four friends conspire to turn the tables on their women when 
they discover the ladies have been using Steve Harvey's 
relationship advice against them.
--------------------------------

Download utorrent client from http://www.utorrent.com/ before downloading from below magnet link

magnet:?xt=urn:btih:B1AD936C108B29EEF7040B0931DE321E785FA543


Think Like a Man (2012) DVDSRC.AC3.XViD.DARND Fast Download


Ad2

 
 
 
Dear visitor, you went to the site as an unregistered user. We encourage you to register or enter the site under your name.
 
   
 
 (Votes #: 0)