2013Zone For Latest Downloads

 
     
 
Legal Downloads » Torrents » First.Aid.Kit.iTunes.Festival.2014.720p.AC3.5.1
Menu
Home Applications
Games Movies
Music TV Shows
Torrents Graphics

Sitemap

RSS
 
Advanced Search
Last News
Site Info
Top Contributors:
  1    supper88 32766
  2    admin 32658
  3    Whisky 10080
  4    Shark_ 8911
  5    creativelivenew 8706
  6    whathesupa 2799
  7    candymypost 840
  8    hvnteam 629
  9    vuong87 3


Articles:
  This Hour: 0
  Today: 0
  This Month: 18
  All Time: 515669


Torrents:
  Today: 0
  Yesterday: 0
  All Time: 156685


Membership:
  Registered Today :0
  This Hour:0
  This Month:0
  Total:14
  Banned:1

{online}
{inform_torrent}
Friend:
We Recomend
Trend
Trend
onlinemovies

Search In Site

Torrents : First.Aid.Kit.iTunes.Festival.2014.720p.AC3.5.1
 

Torrent name:First.Aid.Kit.iTunes.Festival.2014.720p.AC3.5.1

Seeds:5

Leechers:4

Health: 

Total size:1.47 GB

Torrent added:2014-11-17 13:41:32

Info hash:2A04CBD36F1A8D85BDE4756FF480CA8920BEE7DF


Description:
 

This video is a 720p version of the video at torrent #11475096. Since no 720p version actually exists, I had to do the conversion myself and I took defaults for everything from Avidemux 2.6. This version will play much more smoothly and look either identical or *very nearly* identical to the other one depending on the size of your monitor. Here are the file details along with the switches used for the (over 5 hour) resizing operation:

The entire concert is 44:08 minutes long and here are the details:
------------------------------------------------------------------
General
Complete name                            : First Aid Kit - iTunes Festival 2014 (21-09-2014).AC3.5.1.avi
Format                                   : AVI
Format/Info                              : Audio Video Interleave
File size                                : 1.47 GiB
Duration                                 : 44mn 13s
Overall bit rate                         : 4 773 Kbps
Writing library                          : VirtualDub build 35491/release

Video
ID                                       : 0
Format                                   : AVC
Format/Info                              : Advanced Video Codec
Format profile                           : [email protected]
Format settings, CABAC                   : Yes
Format settings, ReFrames                : 4 frames
Codec ID                                 : H264
Duration                                 : 44mn 13s
Bit rate                                 : 4 500 Kbps
Width                                    : 1 280 pixels
Height                                   : 720 pixels
Display aspect ratio                     : 16:9
Frame rate                               : 25.000 fps
Color space                              : YUV
Chroma subsampling                       : 4:2:0
Bit depth                                : 8 bits
Scan type                                : Progressive
Bits/(Pixel*Frame)                       : 0.195
Stream size                              : 1.33 GiB (90%)
Writing library                          : x264 core 123 r2189 35cf912
Encoding settings                        : cabac=1 / ref=3 / deblock=1:0:0 / analyse=0x3:0x133 / me=hex / subme=7 / psy=1 / psy_rd=1.00:0.00 / mixed_ref=1 / me_range=16 / chroma_me=1 / trellis=1 / 8x8dct=1 / cqm=0 / deadzone=21,11 / fast_pskip=1 / chroma_qp_offset=-2 / threads=1 / sliced_threads=0 / nr=0 / decimate=1 / interlaced=0 / bluray_compat=0 / constrained_intra=0 / bframes=3 / b_pyramid=2 / b_adapt=1 / b_bias=0 / direct=1 / weightb=1 / open_gop=0 / weightp=2 / keyint=250 / keyint_min=25 / scenecut=40 / intra_refresh=0 / rc_lookahead=40 / rc=2pass / mbtree=1 / bitrate=4500 / ratetol=1.0 / qcomp=0.60 / qpmin=10 / qpmax=51 / qpstep=4 / cplxblur=20.0 / qblur=0.5 / ip_ratio=1.40 / aq=1:1.00

Audio
ID                                       : 1
Format                                   : AC-3
Format/Info                              : Audio Coding 3
Mode extension                           : CM (complete main)
Format settings, Endianness              : Big
Codec ID                                 : 2000
Duration                                 : 44mn 8s
Bit rate mode                            : Constant
Bit rate                                 : 448 Kbps
Channel(s)                               : 6 channels
Channel positions                        : Front: L C R, Side: L R, LFE
Sampling rate                            : 48.0 KHz
Bit depth                                : 16 bits
Compression mode                         : Lossy
Stream size                              : 141 MiB (9%)
Alignment                                : Split accross interleaves
Interleave, duration                     : 40 ms (1.00 video frame)
Interleave, preload duration             : 500 ms

------------------------------------------------------------------------

You will have noticed that it says "VirtualDub" and not "Avidemux". The reason for that is, even if it weren't required to overlay (actually "interleave") a Dolby audio stream into the resulting AVI file, a 2ⁿᵈ pass is always required for some reason or else media players will consider the entire file as containing exactly ONE single key frame! And so seeking would not be possible. 

This 2ⁿᵈ pass though, is lossless and only requires a few minutes rather than a few hours time!

- user101966

Download utorrent client from http://www.utorrent.com/ before downloading from below magnet link

magnet:?xt=urn:btih:2A04CBD36F1A8D85BDE4756FF480CA8920BEE7DF


 
 
 
Dear visitor, you went to the site as an unregistered user. We encourage you to register or enter the site under your name.
 
   
 
 (Votes #: 0)