2013Zone For Latest Downloads

 
     
 
Legal Downloads » Torrents » Think Like A Man 2012 TS Xvid Read NFO UnKnOwN
Menu
Home Applications
Games Movies
Music TV Shows
Torrents Graphics

Sitemap

RSS
 
Advanced Search
Last News
Site Info
Top Contributors:
  1    supper88 32766
  2    admin 32683
  3    Whisky 10080
  4    Shark_ 8911
  5    creativelivenew 8706
  6    whathesupa 2799
  7    candymypost 840
  8    hvnteam 629
  9    vuong87 3


Articles:
  This Hour: 0
  Today: 0
  This Month: 52
  All Time: 515552


Torrents:
  Today: 0
  Yesterday: 0
  All Time: 156675


Membership:
  Registered Today :0
  This Hour:0
  This Month:0
  Total:14
  Banned:1

{online}
{inform_torrent}
Friend:
Nulled Script Download
Torrent Download
Trend
Trend
VPN_ad

Search In Site

Torrents : Think Like A Man 2012 TS Xvid Read NFO UnKnOwN
 

Torrent name:Think Like A Man 2012 TS Xvid Read NFO UnKnOwN

Seeds:0

Leechers:0

Health: 

Total size:1.42 GB

Torrent added:2012-05-01 10:03:48

Info hash:AF799704C174B7192C8E3B4F0587430B5895087C


Description:
 

Think Like A Man 2012 TS Xvid Read NFO UnKnOwN


 Four women have given up on getting their men to do what they want until they find a how to book written by Steve Harvey. They start using his advice about relationships, and their men start falling in line, until the men discover what the women have been doing, then the war is on.Written by Douglas Young (the-movie-guy)  
 
http://www.imdb.com/title/tt1621045/

General Information
 Encoded By .......:UnKnOwN 
 Runtime ..........:1:57 
 IMDb URL .........:http://www.imdb.com/title/tt1621045/ 
 Language .........:English 
 File Size ........:1.37gb 
 Release Date ......... 2012 
 Source ......... Nunya Biz 
 File Type ......... Single AVI 
 PS3 Compatible ....... Go For It 
 Genre ......... Comedy/Romance

Video Information
 ID : 0 
 Format : MPEG-4 Visual 
 Format profile : Advanced [email protected] 
 Format settings, BVOP : Yes 
 Format settings, QPel : No 
 Format settings, GMC : No warppoints 
 Format settings, Matrix : Custom 
 Codec ID : XVID 
 Codec ID/Hint : XviD 
 Duration : 1h 57mn 
 Bit rate : 1400kbps 
 Width : 680pixels 
 Height : 254pixels 
 Display aspect ratio : 2:67 
 Frame rate : 29.997fps 
 Color space : YUV 
 Chroma subsampling : 4:2:0 
 Bit depth : 8 bits 
 Scan type : Progressive 
 Bits/(Pixel*Frame) : 0.234 
 Stream size : 892 MiB (86%) 
 Writing library : XviD 1.2.1 (UTC 2008-12-04) 

Audio Information
 ID : 1 
 Format : Mp3 
 Format/Info : MPEG 
 Mode extension : CM (complete main) 
 Codec ID : 2000 
 Duration : 1h 26mn 
 Bit rate mode : Constant 
 Bit rate : 128kbps 
 Channel(s) : 2channels 
 Channel positions : Front: L R 
 Sampling rate : 48.0 KHz 
 Bit depth : 16 bits 
 Stream size : 302 MiB 
 Alignment : Aligned on interleaves 
 Interleave, duration : 42 ms (1.00 video frame) 
 Interleave, preload duration : 512 ms

Download utorrent client from http://www.utorrent.com/ before downloading from below magnet link

magnet:?xt=urn:btih:AF799704C174B7192C8E3B4F0587430B5895087C


Think Like A Man 2012 TS Xvid Read NFO UnKnOwN Fast Download


Cheap VPN

 
 
 
Dear visitor, you went to the site as an unregistered user. We encourage you to register or enter the site under your name.
 
   
 
 (Votes #: 0)