2013Zone For Latest Downloads

 
     
 
Legal Downloads » Torrents » (WWE)WRESTLING SECRETS EXPOSED DVDRIP-ISAS
Menu
Home Applications
Games Movies
Music TV Shows
Torrents Graphics

Sitemap

RSS
 
Advanced Search
Last News
Site Info
Top Contributors:
  1    supper88 32767
  2    admin 32713
  3    Whisky 10093
  4    creativelivenew 8706
  5    Shark_ 7982
  6    whathesupa 2802
  7    candymypost 840
  8    hvnteam 629
  9    vuong87 3


Articles:
  This Hour: 16
  Today: 472
  This Month: 13820
  All Time: 490514


Torrents:
  Today: 0
  Yesterday: 0
  All Time: 159362


Membership:
  Registered Today :0
  This Hour:0
  This Month:0
  Total:14
  Banned:0

{online}
{inform_torrent}
Friend:
free mp3
Calendar
Calendar

Search In Site

Torrents : (WWE)WRESTLING SECRETS EXPOSED DVDRIP-ISAS
 

Torrent name:(WWE)WRESTLING SECRETS EXPOSED DVDRIP-ISAS

Seeds:0

Leechers:0

Health: 

Total size:270.99 MB

Torrent added:2004-01-01 06:54:58

Info hash:B9AEEF38DCD475564F8197CD4ED0EA73BA07A48E


Description:
 

EVERYTHING IN IT IS NOT TRUE..


just watch and enjoy
 
http://bayimg.com/IaoibAAdF



Video
ID                               : 0
Format                           : MPEG-4 Visual
Format profile                   : Advanced Simple@L5
Format settings, BVOP            : 2
Format settings, QPel            : No
Format settings, GMC             : No warppoints
Format settings, Matrix          : Default (H.263)
Muxing mode                      : Packed bitstream
Codec ID                         : XVID
Codec ID/Hint                    : XviD
Duration                         : 34mn 57s
Bit rate                         : 946 Kbps
Width                            : 384 pixels
Height                           : 288 pixels
Display aspect ratio             : 4:3
Frame rate                       : 25.000 fps
Color space                      : YUV
Chroma subsampling               : 4:2:0
Bit depth                        : 8 bits
Scan type                        : Progressive
Compression mode                 : Lossy
Bits/(Pixel*Frame)               : 0.342
Stream size                      : 237 MiB (87%)
Writing library                  : XviD 1.0.3 (UTC 2004-12-20)

Audio
ID                               : 1
Format                           : MPEG Audio
Format version                   : Version 1
Format profile                   : Layer 3
Mode                             : Joint stereo
Mode extension                   : MS Stereo
Codec ID                         : 55
Codec ID/Hint                    : MP3
Duration                         : 34mn 57s
Bit rate mode                    : Constant
Bit rate                         : 128 Kbps
Channel(s)                       : 2 channels
Sampling rate                    : 44.1 KHz
Compression mode                 : Lossy
Stream size                      : 31.9 MiB (12%)
Alignment                        : Split accross interleaves
Interleave, duration             : 40 ms (1.00 video frame)
Interleave, preload duration     : 500 ms
 
http://bayimg.com/IaoibAAdF

Download Link 1:torrage.com/torrent/B9AEEF38DCD475564F8197CD4ED0EA73BA07A48E.torrent

Download Link 2:torcache.net/torrent/B9AEEF38DCD475564F8197CD4ED0EA73BA07A48E.torrent


(WWE)WRESTLING SECRETS EXPOSED DVDRIP-ISAS Fast Download



 
 
 
Dear visitor, you went to the site as an unregistered user. We encourage you to register or enter the site under your name.
 
   
 
 (Votes #: 0)