Advertise
onlinemovies


Outpost Black Sun 2012 BRRip XviD Ac3 Feel-Free

Published On: 1-05-2012, 10:45

Torrent name:Outpost Black Sun 2012 BRRip XviD Ac3 Feel-Free

Seeds:32

Leechers:20

Health: 

Total size:871.15 MB

Torrent added:2012-04-30 14:12:15

Info hash:AE3CD2B37E60B3795B95E17AEBEDFEF9B2BB5D47


Description:

8888888888 888 8888888888 888 888 888 888 888 888 8888888 .d88b. .d88b. 888 8888888 888d888 .d88b. .d88b. 888 d8P Y8b d8P Y8b 888 888 888P" d8P Y8b d8P Y8b 888 88888888 88888888 888 888 888 88888888 88888888 888 Y8b. Y8b. 888 888 888 Y8b. Y8b. 888 "Y8888 "Y8888 888 888 888 "Y8888 "Y8888 Genre:Action | Horror Language:English IMDb: http://www.imdb.com/title/tt1418712 Source:720p.BLURAY.x264-XORBiTANT Thanks! Encoder:Tony Format : AVI Format/Info : Audio Video Interleave File size : 870 MiB Duration : 1h 41mn Overall bit rate : 1 202 Kbps Video ID : 0 Format : MPEG-4 Visual Format profile : Advanced [email protected] Format settings, BVOP : 1 Format settings, QPel : No Format settings, GMC : No warppoints Format settings, Matrix : Default (H.263) Codec ID : XVID Codec ID/Hint : XviD Duration : 1h 41mn Bit rate : 745 Kbps Width : 640 pixels Height : 272 pixels Display aspect ratio : 2.35:1 Frame rate : 23.976 fps Color space : YUV Chroma subsampling : 4:2:0 Bit depth : 8 bits Scan type : Progressive Compression mode : Lossy Bits/(Pixel*Frame) : 0.178 Stream size : 539 MiB (62%) Writing library : XviD 1.2.1 (UTC 2008-12-04) Audio ID : 1 Format : AC-3 Format/Info : Audio Coding 3 Mode extension : CM (complete main) Codec ID : 2000 Duration : 1h 41mn Bit rate mode : Constant Bit rate : 448 Kbps Channel(s) : 6 channels Channel positions : Front: L C R, Side: L R, LFE Sampling rate : 48.0 KHz Bit depth : 16 bits Compression mode : Lossy Stream size : 324 MiB (37%) Alignment : Aligned on interleaves Interleave, duration : 42 ms (1.00 video frame) Interleave, preload duration : 512 ms Plot: The year is 1945, the closing stages of WW2, and a German scientist by the name of Klausener is working on a frightening new technology that has the power to create an immortal Nazi army.. Screen Shots: http://img405.imageshack.us/img405/7097/vlcsnap2012043012h15m21.png http://img855.imageshack.us/img855/2862/vlcsnap2012043012h13m36.png http://img535.imageshack.us/img535/4158/vlcsnap2012043012h13m07.png 8888888888 888 8888888888 888 888 888 888 888 888 8888888 .d88b. .d88b. 888 8888888 888d888 .d88b. .d88b. 888 d8P Y8b d8P Y8b 888 888 888P" d8P Y8b d8P Y8b 888 88888888 88888888 888 888 888 88888888 88888888 888 Y8b. Y8b. 888 888 888 Y8b. Y8b. 888 "Y8888 "Y8888 888 888 888 "Y8888 "Y8888

Download utorrent client from http://www.utorrent.com/ before downloading from below magnet link

[related-news][/related-news]
Dear visitor, you are browsing our website as Guest.
We strongly recommend you to register and login to view hidden contents.

Comments:

Add Comments
 

This site doesn't store any files on its server. We only index and link to content provided by other sites.