2013Zone For Latest Downloads

 
     
 
Legal Downloads » Torrents » The Avengers 2012 Telesync V2 AC3-2.0 [Hannspree]
Menu
Home Applications
Games Movies
Music TV Shows
Torrents Graphics

Sitemap

RSS
 
Advanced Search
Last News
Site Info
Top Contributors:
  1    supper88 32766
  2    admin 32725
  3    Whisky 10080
  4    Shark_ 8911
  5    creativelivenew 8706
  6    whathesupa 2799
  7    candymypost 840
  8    hvnteam 629
  9    vuong87 3


Articles:
  This Hour: 0
  Today: 0
  This Month: 2
  All Time: 515495


Torrents:
  Today: 0
  Yesterday: 0
  All Time: 156680


Membership:
  Registered Today :0
  This Hour:0
  This Month:0
  Total:14
  Banned:1

{online}
{inform_torrent}
Friend:
Full Download Scripts
Torrent Download
Trend
Trend

Search In Site

Torrents : The Avengers 2012 Telesync V2 AC3-2.0 [Hannspree]
 

Torrent name:The Avengers 2012 Telesync V2 AC3-2.0 [Hannspree]

Seeds:378

Leechers:207

Health: 

Total size:719.38 MB

Torrent added:2012-05-07 10:36:30

Info hash:70916BE6286B0BCC1BE1FE97C3A6D4C5BC59577F


Description:
 

The Avengers 2012 Telesync V2 AC3-2.0 [Hannspree]

********Now in the Cinema******** 


Storyline:

Nick Fury of S.H.I.E.L.D. brings together a team of super humans to form The Avengers to help save the Earth from Loki and his army.

Info:
 
Format                           : AVI
Format/Info                      : Audio Video Interleave
File size                        : 719 MiB
Duration                         : 114mn 11s
Overall bit rate                 : 2 069 Kbps
Writing library                  : VirtualDub-MPEG2 build 18294/release

Video
ID                               : 0
Format                           : MPEG-4 Visual
Format profile                   : Advanced [email protected]
Format settings, BVOP            : Yes
Format settings, QPel            : No
Format settings, GMC             : No warppoints
Format settings, Matrix          : Default (H.263)
Muxing mode                      : Packed bitstream
Codec ID                         : DX50
Codec ID/Hint                    : DivX 5
Duration                         : 55mn 11s
Bit rate                         : 1 865 Kbps
Width                            : 720 pixels
Height                           : 416 pixels
Display aspect ratio             : 16:9
Frame rate                       : 29.970 fps
Color space                      : YUV
Chroma subsampling               : 4:2:0
Bit depth                        : 8 bits
Scan type                        : Progressive
Bits/(Pixel*Frame)               : 0.208
Stream size                      : 736 MiB (90%)
Writing library                  : XviD 1.2.1 (UTC 2008-12-04)

Audio
ID                               : 1
Format                           : AC-3
Format/Info                      : Audio Coding 3
Mode extension                   : CM (complete main)
Codec ID                         : 2000
Duration                         : 55mn 11s
Bit rate mode                    : Constant
Bit rate                         : 192 Kbps
Channel(s)                       : 2 channels
Channel positions                : Front: L R
Sampling rate                    : 48.0 KHz
Bit depth                        : 16 bits
Stream size                      : 75.8 MiB (9%)
Alignment                        : Split accross interleaves
Interleave, duration             : 33 ms (1.00 video frame)
Interleave, preload duration     : 500 ms

  
http://www.imdb.com/title/tt0848228/

Download utorrent client from http://www.utorrent.com/ before downloading from below magnet link

magnet:?xt=urn:btih:70916BE6286B0BCC1BE1FE97C3A6D4C5BC59577F


The Avengers 2012 Telesync V2 AC3-2.0 [Hannspree] Fast Download



 
 
 
Dear visitor, you went to the site as an unregistered user. We encourage you to register or enter the site under your name.
 
   
 
 (Votes #: 0)