2013Zone For Latest Downloads

 
     
 
Legal Downloads » Torrents » Sherlock Holmes 2 O Jogo de Sombras - Dual Audio - 1080p - 5.1 /
Menu
Home Applications
Games Movies
Music TV Shows
Torrents Graphics

Sitemap

RSS
 
Advanced Search
Last News
Site Info
Top Contributors:
  1    supper88 32766
  2    admin 32725
  3    Whisky 10080
  4    Shark_ 8911
  5    creativelivenew 8706
  6    whathesupa 2799
  7    candymypost 840
  8    hvnteam 629
  9    vuong87 3


Articles:
  This Hour: 0
  Today: 0
  This Month: 2
  All Time: 515495


Torrents:
  Today: 0
  Yesterday: 0
  All Time: 156680


Membership:
  Registered Today :0
  This Hour:0
  This Month:0
  Total:14
  Banned:1

{online}
{inform_torrent}
Friend:
Full Download Scripts
Torrent Download
Trend
Trend

Search In Site

Torrents : Sherlock Holmes 2 O Jogo de Sombras - Dual Audio - 1080p - 5.1 /
 

Torrent name:Sherlock Holmes 2 O Jogo de Sombras - Dual Audio - 1080p - 5.1 /

Seeds:0

Leechers:0

Health: 

Total size:9.15 GB

Torrent added:2012-05-08 02:28:43

Info hash:BFD35F87837AD8ECE8349D697F431E00F0EA3BF4


Description:
 

General


Format                           : Matroska
File size                        : 9.15 GiB
Duration                         : 2h 8mn
Overall bit rate                 : 10.2 Mbps
Encoded date                     : UTC 2012-04-23 17:49:06
Writing application              : mkvmerge v4.9.1 ('Ich will') built on Jul 11 2011 22:46:04
Writing library                  : libebml v1.2.1 + libmatroska v1.1.1

Video
ID                               : 1
Format                           : AVC
Format/Info                      : Advanced Video Codec
Format profile                   : [email protected]
Format settings, CABAC           : Yes
Format settings, ReFrames        : 5 frames
Codec ID                         : V_MPEG4/ISO/AVC
Duration                         : 2h 8mn
Bit rate                         : 8 217 Kbps
Width                            : 1 920 pixels
Height                           : 800 pixels
Display aspect ratio             : 2.40:1
Frame rate                       : 23.976 fps
Color space                      : YUV
Chroma subsampling               : 4:2:0
Bit depth                        : 8 bits
Scan type                        : Progressive
Bits/(Pixel*Frame)               : 0.223
Stream size                      : 7.21 GiB (79%)
Writing library                  : x264 core 122 r2184 5c85e0a

Audio #1
ID                               : 2
Format                           : AC-3
Format/Info                      : Audio Coding 3
Mode extension                   : CM (complete main)
Codec ID                         : A_AC3
Duration                         : 2h 8mn
Bit rate mode                    : Constant
Bit rate                         : 448 Kbps
Channel(s)                       : 6 channels
Channel positions                : Front: L C R, Side: L R, LFE
Sampling rate                    : 48.0 KHz
Bit depth                        : 16 bits
Compression mode                 : Lossy
Stream size                      : 413 MiB (4%)
Title                            : BKZ
Language                         : Portuguese

Audio #2
ID                               : 3
Format                           : DTS
Format/Info                      : Digital Theater Systems
Codec ID                         : A_DTS
Duration                         : 2h 8mn
Bit rate mode                    : Constant
Bit rate                         : 1 510 Kbps
Channel(s)                       : 6 channels
Channel positions                : Front: L C R, Side: L R, LFE
Sampling rate                    : 48.0 KHz
Bit depth                        : 24 bits
Compression mode                 : Lossy
Stream size                      : 1.36 GiB (15%)
Language                         : English




-----------------------------------------------------

Quando (Se) chegar a 50 peer upo mais um filme em HD a pedido (ou não)

:)

Download utorrent client from http://www.utorrent.com/ before downloading from below magnet link

magnet:?xt=urn:btih:BFD35F87837AD8ECE8349D697F431E00F0EA3BF4


Sherlock Holmes 2 O Jogo de Sombras - Dual Audio - 1080p - 5.1 / Fast Download



 
 
 
Dear visitor, you went to the site as an unregistered user. We encourage you to register or enter the site under your name.
 
   
 
 (Votes #: 0)