2013Zone For Latest Downloads

 
     
 
Legal Downloads » Torrents » Stella Days 2011 HDTV AC3-5 1 XviD-SiC
Menu
Home Applications
Games Movies
Music TV Shows
Torrents Graphics

Sitemap

RSS
 
Advanced Search
Last News
Site Info
Top Contributors:
  1    supper88 32766
  2    admin 32725
  3    Whisky 10080
  4    Shark_ 8911
  5    creativelivenew 8706
  6    whathesupa 2799
  7    candymypost 840
  8    hvnteam 629
  9    vuong87 3


Articles:
  This Hour: 0
  Today: 0
  This Month: 2
  All Time: 515495


Torrents:
  Today: 0
  Yesterday: 0
  All Time: 156680


Membership:
  Registered Today :0
  This Hour:0
  This Month:0
  Total:14
  Banned:1

{online}
{inform_torrent}
Friend:
Full Download Scripts
Torrent Download
Trend
Trend

Search In Site

Torrents : Stella Days 2011 HDTV AC3-5 1 XviD-SiC
 

Torrent name:Stella Days 2011 HDTV AC3-5 1 XviD-SiC

Seeds:0

Leechers:0

Health: 

Total size:1.42 GB

Torrent added:2012-05-08 00:29:04

Info hash:056DCB8695BF668F631C40F9FF26A3731B626B4F


Description:
 

A small town cinema in rural Ireland becomes the setting for a dramatic struggle between faith and passion, Rome and Hollywood and a man and his conscience. 


MediaInfo:
General
Complete name : Stella.Days.2011.HDTV.AC3-5.1.XviD-SiC.avi
Format : AVI
Format/Info : Audio Video Interleave
File size : 1.40 GiB
Duration : 1h 29mn
Overall bit rate : 2 247 Kbps

Video
ID : 0
Format : MPEG-4 Visual
Format profile : Advanced [email protected]
Format settings, BVOP : 1
Format settings, QPel : No
Format settings, GMC : No warppoints
Format settings, Matrix : Default (H.263)
Codec ID : XVID
Codec ID/Hint : XviD
Duration : 1h 29mn
Bit rate : 1 849 Kbps
Width : 720 pixels
Height : 304 pixels
Display aspect ratio : 2.35:1
Frame rate : 59.940 fps
Color space : YUV
Chroma subsampling : 4:2:0
Bit depth : 8 bits
Scan type : Progressive
Compression mode : Lossy
Bits/(Pixel*Frame) : 0.141
Stream size : 1.15 GiB (82%)
Writing library : XviD 1.2.1 (UTC 2008-12-04)

Audio
ID : 1
Format : AC-3
Format/Info : Audio Coding 3
Mode extension : CM (complete main)
Format settings, Endianness : Big
Codec ID : 2000
Duration : 1h 29mn
Bit rate mode : Constant
Bit rate : 384 Kbps
Channel(s) : 6 channels
Channel positions : Front: L C R, Side: L R, LFE
Sampling rate : 48.0 KHz
Bit depth : 16 bits
Compression mode : Lossy
Stream size : 245 MiB (17%)
Alignment : Aligned on interleaves
Interleave, duration : 64 ms (3.84 video frames)
Interleave, preload duration : 192 ms
Title : Stella.Days.2011.HDTV.AC3-5.1-SiC.dga PID 1100 3_2ch 48KHz 384Kbps
DELAY -18ms

Download utorrent client from http://www.utorrent.com/ before downloading from below magnet link

magnet:?xt=urn:btih:056DCB8695BF668F631C40F9FF26A3731B626B4F


Stella Days 2011 HDTV AC3-5 1 XviD-SiC Fast Download



 
 
 
Dear visitor, you went to the site as an unregistered user. We encourage you to register or enter the site under your name.
 
   
 
 (Votes #: 0)