2013Zone For Latest Downloads

 
     
 
Legal Downloads » Torrents » Adele - Set Fire to the rain( Live At The Royal Albert Hall)
Menu
Home Applications
Games Movies
Music TV Shows
Torrents Graphics

Sitemap

RSS
 
Advanced Search
Last News
Site Info
Top Contributors:
  1    supper88 32766
  2    admin 32725
  3    Whisky 10080
  4    Shark_ 8911
  5    creativelivenew 8706
  6    whathesupa 2799
  7    candymypost 840
  8    hvnteam 629
  9    vuong87 3


Articles:
  This Hour: 0
  Today: 0
  This Month: 2
  All Time: 515495


Torrents:
  Today: 0
  Yesterday: 0
  All Time: 156680


Membership:
  Registered Today :0
  This Hour:0
  This Month:0
  Total:14
  Banned:1

{online}
{inform_torrent}
Friend:
Full Download Scripts
Torrent Download
Trend
Trend

Search In Site

Torrents : Adele - Set Fire to the rain( Live At The Royal Albert Hall)
 

Torrent name:Adele - Set Fire to the rain( Live At The Royal Albert Hall)

Seeds:1

Leechers:2

Health: 

Total size:391.98 MB

Torrent added:2012-05-08 11:11:45

Info hash:9C576B692BEEF52B91EA7DE9D967B26A6E5DE515


Description:
 

General
Complete name                  : Adele - Set Fire to the rain( Live At The Royal Albert Hall).mp4
Format                         : MPEG-4
Format profile                 : Base Media
Codec ID                       : isom
File size                      : 392 MiB
Duration                       : 3mn 57s
Overall bit rate mode          : Variable
Overall bit rate               : 13.8 Mbps


Video
ID                             : 1
Format                         : AVC
Format/Info                    : Advanced Video Codec
Format profile                 : [email protected]
Format settings, CABAC         : Yes
Format settings, ReFrames      : 4 frames
Codec ID                       : avc1
Codec ID/Info                  : Advanced Video Coding
Duration                       : 3mn 57s
Bit rate                       : 12.7 Mbps
Maximum bit rate               : 22.8 Mbps
Width                          : 1 904 pixels
Height                         : 816 pixels
Display aspect ratio           : 2.35:1
Frame rate mode                : Constant
Frame rate                     : 29.970 fps
Color space                    : YUV
Chroma subsampling             : 4:2:0
Bit depth                      : 8 bits
Scan type                      : Progressive
Bits/(Pixel*Frame)             : 0.273
Stream size                    : 360 MiB (92%)
Title                          : Video
Writing library                : x264 core 105 r1724 b02df7b


Audio
ID                             : 2
Format                         : AAC
Format/Info                    : Advanced Audio Codec
Format profile                 : LC
Codec ID                       : 40
Duration                       : 3mn 57s
Bit rate mode                  : Variable
Bit rate                       : 1 122 Kbps
Maximum bit rate               : 1 160 Kbps
Channel(s)                     : 6 channels
Channel positions              : Front: L C R, Side: L R, LFE
Sampling rate                  : 48.0 KHz
Compression mode               : Lossy
Stream size                    : 31.8 MiB (8%)
Language                       : English

Download utorrent client from http://www.utorrent.com/ before downloading from below magnet link

magnet:?xt=urn:btih:9C576B692BEEF52B91EA7DE9D967B26A6E5DE515


Adele - Set Fire to the rain( Live At The Royal Albert Hall) Fast Download



 
 
 
Dear visitor, you went to the site as an unregistered user. We encourage you to register or enter the site under your name.
 
   
 
 (Votes #: 0)