2013Zone For Latest Downloads

 
     
 
Legal Downloads » Torrents » The Karate Kid-720p MP4 AAC x264 BRRip 1984-CC
Menu
Home Applications
Games Movies
Music TV Shows
Torrents Graphics

Sitemap

RSS
 
Advanced Search
Last News
Site Info
Top Contributors:
  1    supper88 32766
  2    admin 32725
  3    Whisky 10080
  4    Shark_ 8911
  5    creativelivenew 8706
  6    whathesupa 2799
  7    candymypost 840
  8    hvnteam 629
  9    vuong87 3


Articles:
  This Hour: 0
  Today: 0
  This Month: 0
  All Time: 515494


Torrents:
  Today: 0
  Yesterday: 0
  All Time: 156680


Membership:
  Registered Today :0
  This Hour:0
  This Month:0
  Total:14
  Banned:1

{online}
{inform_torrent}
Friend:
Full Download Scripts
Torrent Download
Trend
Trend

Search In Site

Torrents : The Karate Kid-720p MP4 AAC x264 BRRip 1984-CC
 

Torrent name:The Karate Kid-720p MP4 AAC x264 BRRip 1984-CC

Seeds:1

Leechers:5

Health: 

Total size:2.14 GB

Torrent added:2012-05-08 18:02:59

Info hash:78F75820E169B43C29C88C1AE3580B05C91BA738


Description:
 

Source: The Karate Kid 1984 720p BluRay x264-MELiTE

Subs: Arabic, Brazilian, Danish, Dutch, English, French, Servian, Slovenian, Spanish and Swedish.

Sample and Screens included.

General
Complete name                    : The Karate Kid-720p MP4 AAC x264 BRRip 1984-CC.mp4
Format                           : MPEG-4
Format profile                   : Base Media
Codec ID                         : isom
File size                        : 2.11 GiB
Duration                         : 2h 6mn
Overall bit rate                 : 2 379 Kbps
Encoded date                     : UTC 2012-05-05 08:54:15

Video
ID                               : 1
Format                           : AVC
Format/Info                      : Advanced Video Codec
Format profile                   : [email protected]
Format settings, CABAC           : Yes
Format settings, ReFrames        : 5 frames
Codec ID                         : avc1
Codec ID/Info                    : Advanced Video Coding
Duration                         : 2h 6mn
Bit rate mode                    : Variable
Bit rate                         : 1 990 Kbps
Nominal bit rate                 : 2 024 Kbps
Maximum bit rate                 : 13.4 Mbps
Width                            : 1 280 pixels
Height                           : 688 pixels
Display aspect ratio             : 1.860
Frame rate mode                  : Variable
Frame rate                       : 23.976 fps
Minimum frame rate               : 19.048 fps
Maximum frame rate               : 24.390 fps
Resolution                       : 24 bits
Colorimetry                      : 4:2:0
Scan type                        : Progressive
Bits/(Pixel*Frame)               : 0.094
Stream size                      : 1.76 GiB (84%)
Writing library                  : x264 core 112

Audio
ID                               : 2
Format                           : AAC
Format/Info                      : Advanced Audio Codec
Format version                   : Version 4
Format profile                   : LC
Format settings, SBR             : No
Codec ID                         : 40
Duration                         : 2h 6mn
Bit rate mode                    : Variable
Bit rate                         : 384 Kbps
Maximum bit rate                 : 641 Kbps
Channel(s)                       : 6 channels
Channel positions                : Front: L C R, Rear: L R, LFE
Sampling rate                    : 48.0 KHz
Resolution                       : 16 bits
Stream size                      : 349 MiB (16%)
Language                         : English

Enjoy...

Requested by eidref.

Download utorrent client from http://www.utorrent.com/ before downloading from below magnet link

magnet:?xt=urn:btih:78F75820E169B43C29C88C1AE3580B05C91BA738


The Karate Kid-720p MP4 AAC x264 BRRip 1984-CC Fast Download



 
 
 
Dear visitor, you went to the site as an unregistered user. We encourage you to register or enter the site under your name.
 
   
 
 (Votes #: 0)