2013Zone For Latest Downloads

 
     
 
Legal Downloads » Torrents » Coriolanus.2011.LIMITED.720p.BRRip.XviD.Ac3.Feel-Free
Menu
Home Applications
Games Movies
Music TV Shows
Torrents Graphics

Sitemap

RSS
 
Advanced Search
Last News
Site Info
Top Contributors:
  1    supper88 32766
  2    admin 32725
  3    Whisky 10080
  4    Shark_ 8911
  5    creativelivenew 8706
  6    whathesupa 2799
  7    candymypost 840
  8    hvnteam 629
  9    vuong87 3


Articles:
  This Hour: 0
  Today: 0
  This Month: 0
  All Time: 515494


Torrents:
  Today: 0
  Yesterday: 0
  All Time: 156680


Membership:
  Registered Today :0
  This Hour:0
  This Month:0
  Total:14
  Banned:1

{online}
{inform_torrent}
Friend:
Full Download Scripts
Torrent Download
Trend
Trend

Search In Site

Torrents : Coriolanus.2011.LIMITED.720p.BRRip.XviD.Ac3.Feel-Free
 

Torrent name:Coriolanus.2011.LIMITED.720p.BRRip.XviD.Ac3.Feel-Free

Seeds:0

Leechers:0

Health: 

Total size:2.88 GB

Torrent added:2012-05-08 17:50:37

Info hash:C32922BE343F5B728C3D490B26DDCCC5E3C8B306


Description:
 

Genre:Drama | Thriller
 Language:English
 IMDb:http://www.imdb.com/title/tt1372686/
 Source: BluRay x264-SPARKS Thanks!
 Encoder:Tony
 
Format : MPEG-4
 Format profile : Base Media
 Codec ID : isom
 File size : 2.88 GiB
 Duration : 2h 3mn
 Overall bit rate mode : Variable
 Overall bit rate : 3 343 Kbps
 
Video
 ID : 1
 Format : AVC
 Format/Info : Advanced Video Codec
 Format profile : [email protected]
 Format settings, CABAC : Yes
 Format settings, ReFrames : 3 frames
 Codec ID : avc1
 Codec ID/Info : Advanced Video Coding
 Duration : 2h 3mn
 Bit rate : 3 000 Kbps
 Maximum bit rate : 28.4 Mbps
 Width : 1 280 pixels
 Height : 544 pixels
 Display aspect ratio : 2.35:1
 Frame rate mode : Constant
 Frame rate : 23.976 fps
 Color space : YUV
 Chroma subsampling : 4:2:0
 Bit depth : 8 bits
 Scan type : Progressive
 Bits/(Pixel*Frame) : 0.180
 Stream size : 2.52 GiB (87%)
 Writing library : x264
 
Audio
 ID : 2
 Format : AAC
 Format/Info : Advanced Audio Codec
 Format profile : LC
 Codec ID : 40
 Duration : 2h 3mn
 Bit rate mode : Variable
 Bit rate : 419 Kbps
 Maximum bit rate : 565 Kbps
 Channel(s) : 6 channels
 Channel positions : Front: L C R, Side: L R, LFE
 Sampling rate : 48.0 KHz
 Compression mode : Lossy
 Stream size : 370 MiB (13%)
 

Plot:
 A banished hero of Rome allies with a sworn enemy to take his revenge on the city.

Download utorrent client from http://www.utorrent.com/ before downloading from below magnet link

magnet:?xt=urn:btih:C32922BE343F5B728C3D490B26DDCCC5E3C8B306


Coriolanus.2011.LIMITED.720p.BRRip.XviD.Ac3.Feel-Free Fast Download



 
 
 
Dear visitor, you went to the site as an unregistered user. We encourage you to register or enter the site under your name.
 
   
 
 (Votes #: 0)