Advertise
onlinemovies


Teens Try Anal - Felecia

Published On: 12-05-2012, 09:46

Torrent name:Teens Try Anal - Felecia

Seeds:0

Leechers:0

Health: 

Total size:271.25 MB

Torrent added:2012-05-12 08:45:24

Info hash:F03F90A33D13D653FF816BDFD80F0D7FA99AEE6D


Description:

http://bayimg.com/kaOOeAADI Format : AVI Format/Info : Audio Video Interleave File size : 271 MiB Duration : 26mn 16s Overall bit rate mode : Variable Overall bit rate : 1 443 Kbps Writing application : VirtualDubMod 1.5.10.2 (build 2540/release) Writing library : VirtualDub build 32842/release Video ID : 0 Format : MPEG-4 Visual Format profile : Advanced [email protected] Format settings, BVOP : No Format settings, QPel : No Format settings, GMC : No warppoints Format settings, Matrix : Default (MPEG) Codec ID : XVID Codec ID/Hint : XviD Duration : 26mn 16s Bit rate : 1 301 Kbps Width : 640 pixels Height : 352 pixels Display aspect ratio : 16:9 Frame rate : 25.000 fps Color space : YUV Chroma subsampling : 4:2:0 Bit depth : 8 bits Scan type : Progressive Compression mode : Lossy Bits/(Pixel*Frame) : 0.231 Stream size : 245 MiB (90%) Writing library : XviD 1.2.1 (UTC 2008-12-04) Audio ID : 1 Format : MPEG Audio Format version : Version 1 Format profile : Layer 3 Mode : Joint stereo Mode extension : MS Stereo Codec ID : 55 Codec ID/Hint : MP3 Duration : 26mn 16s Bit rate mode : Variable Bit rate : 128 Kbps Channel(s) : 2 channels Sampling rate : 48.0 KHz Compression mode : Lossy Stream size : 24.2 MiB (9%) Alignment : Aligned on interleaves Interleave, duration : 24 ms (0.60 video frame) Interleave, preload duration : 344 ms

Download utorrent client from http://www.utorrent.com/ before downloading from below magnet link

Friends: Free Full Download | Torrent Magnet Download | Graphics Download | Watch Online Movies
Dear visitor, you are browsing our website as Guest.
We strongly recommend you to register and login to view hidden contents.

Comments:

Add Comments
 

This site doesn't store any files on its server. We only index and link to content provided by other sites.