Advertise
onlinemovies


Sophia Sutra - ATK Galleria

Published On: 14-05-2012, 15:48

Torrent name:Sophia Sutra - ATK Galleria

Seeds:0

Leechers:0

Health: 

Total size:359.02 MB

Torrent added:2012-05-14 15:34:42

Info hash:6B871D5A7E33557845E5528D206735AFFA75217E


Description:

http://bayimg.com/BAOInaADJ Format : Windows Media File size : 359 MiB Duration : 23mn 27s Overall bit rate mode : Variable Overall bit rate : 2 140 Kbps Maximum Overall bit rate : 2 157 Kbps Encoded date : UTC 2009-07-30 04:57:33.484 Video ID : 2 Format : VC-1 Format profile : [email protected] Codec ID : WVC1 Codec ID/Hint : Microsoft Description of the codec : Windows Media Video 9 Advanced Profile Duration : 23mn 27s Bit rate mode : Constant Bit rate : 2 000 Kbps Width : 854 pixels Height : 480 pixels Display aspect ratio : 16:9 Frame rate : 29.970 fps Chroma subsampling : 4:2:0 Bit depth : 8 bits Scan type : Progressive Compression mode : Lossy Bits/(Pixel*Frame) : 0.163 Stream size : 336 MiB (93%) Language : English (US) Audio ID : 1 Format : WMA Format version : Version 2 Codec ID : 161 Codec ID/Info : Windows Media Audio Description of the codec : Windows Media Audio 9.2 - 128 kbps, 48 kHz, stereo 2-pass VBR Duration : 23mn 27s Bit rate mode : Variable Bit rate : 128 Kbps Channel(s) : 2 channels Sampling rate : 48.0 KHz Bit depth : 16 bits Stream size : 21.5 MiB (6%) Language : English (US)

Download utorrent client from http://www.utorrent.com/ before downloading from below magnet link



Friends: Free Full Download | Torrent Magnet Download | Graphics Download | Watch Online Movies
Dear visitor, you are browsing our website as Guest.
We strongly recommend you to register and login to view hidden contents.

Comments:

Add Comments
 

This site doesn't store any files on its server. We only index and link to content provided by other sites.