2013Zone For Latest Downloads

 
     
 
Legal Downloads » Torrents » The Avengers 2012 TS XviD AC3-ADTRG
Menu
Home Applications
Games Movies
Music TV Shows
Torrents Graphics

Sitemap

RSS
 
Advanced Search
Last News
Site Info
Top Contributors:
  1    supper88 32767
  2    admin 32713
  3    Whisky 10093
  4    creativelivenew 8706
  5    Shark_ 7982
  6    whathesupa 2802
  7    candymypost 840
  8    hvnteam 629
  9    vuong87 3


Articles:
  This Hour: 21
  Today: 250
  This Month: 13789
  All Time: 489255


Torrents:
  Today: 0
  Yesterday: 0
  All Time: 159362


Membership:
  Registered Today :0
  This Hour:0
  This Month:0
  Total:14
  Banned:0

{online}
{inform_torrent}
Friend:
free mp3
Calendar
Calendar

Search In Site

Torrents : The Avengers 2012 TS XviD AC3-ADTRG
 

Torrent name:The Avengers 2012 TS XviD AC3-ADTRG

Seeds:358

Leechers:1775

Health: 

Total size:1.91 GB

Torrent added:2012-05-15 23:28:00

Info hash:A9AC69A718A352DD1F7D8BE2A589391585755716


Description:
 

[img]http://img11.imageshack.us/img11/5650/90708056.jpg[/img]

Nick Fury of S.H.I.E.L.D. brings together a team of super humans to form The Avengers to help save the Earth from Loki and his army, While also helping Dragon Exclusive get LiNe for this awesome movie

Source -   Video  -     Chinese HDCAM  Thanks
Source -   Audio  -     Dragon Exclusive , awesome work Bro ;)

Complete name                            : The.Avengers.2012.TS.XviD.AC3-ADTRG.avi
Format                                   : AVI
File size                                : 1.90 GiB
Duration                                 : 2h 15mn
Overall bit rate                         : 1 999 Kbps
Writing library                          : VirtualDub build 34703/release

Video
ID                                       : 0
Format                                   : MPEG-4 Visual
Codec ID                                 : XVID
Bit rate                                 : 1 798 Kbps
Width                                    : 720 pixels
Height                                   : 320 pixels
Display aspect ratio                     : 2.25:1
Frame rate                               : 23.976 fps
Stream size                              : 1.71 GiB (90%)

Audio
ID                                       : 1
Format                                   : AC-3
Bit rate                                 : 192 Kbps
Channel(s)                               : 2 channels
Channel positions                        : Front: L R
Stream size                              : 186 MiB (10%)



Encoder - LiMeY
first off, replaced annoying Marvel intro with clean un logo'd scene. Then blurred and subbed the Black window scene.Ran our magical filters lol, Started Syncing, 18hrs later.. went to bed and got some boom boom, thanks GF, got up, finished syncing. had a cuppa tea with my eggs on toast (over easy)
then checked file, looks and sounds great to me.( some very minor +/- 100ms of in one maybe two places, no biggie) Dont like , grab cam ;) .

So many new releases coming, So hot diggerty dog... lets get to work ;). 

Oh  Enjoy ;)

[img]http://imgcrave.com/u/Hmc8S.png[/img]
[img]http://imgcrave.com/u/sb93p.png[/img]
[img]http://imgcrave.com/u/kAcYV.png[/img]
[img]http://imgcrave.com/u/eNDSt.png[/img]

Download Link 1:torrage.com/torrent/A9AC69A718A352DD1F7D8BE2A589391585755716.torrent

Download Link 2:torcache.net/torrent/A9AC69A718A352DD1F7D8BE2A589391585755716.torrent


The Avengers 2012 TS XviD AC3-ADTRG Fast Download



 
 
 
Dear visitor, you went to the site as an unregistered user. We encourage you to register or enter the site under your name.
 
   
 
 (Votes #: 0)