2013Zone For Latest Downloads

 
     
 
Legal Downloads » Torrents » American Pie Reunion 2012 New Telesync XviD Feel-Free
Menu
Home Applications
Games Movies
Music TV Shows
Torrents Graphics

Sitemap

RSS
 
Advanced Search
Last News
Site Info
Top Contributors:
  1    supper88 32766
  2    admin 32693
  3    Whisky 10080
  4    Shark_ 8911
  5    creativelivenew 8706
  6    whathesupa 2799
  7    candymypost 840
  8    hvnteam 629
  9    vuong87 3


Articles:
  This Hour: 0
  Today: 0
  This Month: 0
  All Time: 515561


Torrents:
  Today: 0
  Yesterday: 0
  All Time: 156684


Membership:
  Registered Today :0
  This Hour:0
  This Month:0
  Total:14
  Banned:1

{online}
{inform_torrent}
Friend:
We Recomend
Trend
Trend
Ad1

Search In Site

Torrents : American Pie Reunion 2012 New Telesync XviD Feel-Free
 

Torrent name:American Pie Reunion 2012 New Telesync XviD Feel-Free

Seeds:20

Leechers:247

Health: 

Total size:1.2 GB

Torrent added:2012-05-16 13:02:53

Info hash:08A8C34B33C25004593198EA7C92E0087BF4F9A7


Description:
 

Genre: Comedy
Language:English 
http://www.imdb.com/title/tt1605630/
Source:1280x720p.RIP.DIVX.[Eng]-DUQA Thanks!
Encoder:Tony

Format : AVI
Format/Info : Audio Video Interleave
File size : 1.20 GiB
Duration : 1h 44mn
Overall bit rate : 1 648 Kbps

Video
ID : 0
Format : MPEG-4 Visual
Format profile : Advanced [email protected]
Format settings, BVOP : 1
Format settings, QPel : No
Format settings, GMC : No warppoints
Format settings, Matrix : Default (H.263)
Codec ID : XVID
Codec ID/Hint : XviD
Duration : 1h 44mn
Bit rate : 1 445 Kbps
Width : 640 pixels
Height : 344 pixels
Display aspect ratio : 1.860
Frame rate : 29.970 fps
Color space : YUV
Chroma subsampling : 4:2:0
Bit depth : 8 bits
Scan type : Progressive
Compression mode : Lossy
Bits/(Pixel*Frame) : 0.219
Stream size : 1.05 GiB (88%)
Writing library : XviD 1.2.1 (UTC 2008-12-04)

Audio
ID : 1
Format : AC-3
Format/Info : Audio Coding 3
Mode extension : CM (complete main)
Codec ID : 2000
Duration : 1h 44mn
Bit rate mode : Constant
Bit rate : 192 Kbps
Channel(s) : 2 channels
Channel positions : Front: L R
Sampling rate : 48.0 KHz
Bit depth : 16 bits
Compression mode : Lossy
Stream size : 143 MiB (12%)
Alignment : Aligned on interleaves
Interleave, duration : 33 ms (1.00 video frame)
Interleave, preload duration : 512 ms


Plot:
Jim, Michelle, Stifler, and their friends reunite in East Great Falls, Michigan for their high school reunion.
 
http://img844.imageshack.us/img844/4079/vlcsnap2012051614h39m46.png 
http://img827.imageshack.us/img827/909/vlcsnap2012051614h39m57.png 
http://img15.imageshack.us/img15/3819/vlcsnap2012051614h40m02.png 
http://img535.imageshack.us/img535/7526/vlcsnap2012051614h40m07.png 
http://img190.imageshack.us/img190/3615/vlcsnap2012051614h41m48.png

Download utorrent client from http://www.utorrent.com/ before downloading from below magnet link

magnet:?xt=urn:btih:08A8C34B33C25004593198EA7C92E0087BF4F9A7


American Pie Reunion 2012 New Telesync XviD Feel-Free Fast Download


Ad2

 
 
 
Dear visitor, you went to the site as an unregistered user. We encourage you to register or enter the site under your name.
 
   
 
 (Votes #: 0)