2013Zone For Latest Downloads

 
     
 
Legal Downloads » Torrents » The Avengers .2012 DVDRip XviD AC3- 26K
Menu
Home Applications
Games Movies
Music TV Shows
Torrents Graphics

Sitemap

RSS
 
Advanced Search
Last News
Site Info
Top Contributors:
  1    supper88 32766
  2    admin 32671
  3    Whisky 10080
  4    Shark_ 8911
  5    creativelivenew 8706
  6    whathesupa 2799
  7    candymypost 840
  8    hvnteam 629
  9    vuong87 3


Articles:
  This Hour: 20
  Today: 20
  This Month: 58
  All Time: 515616


Torrents:
  Today: 20
  Yesterday: 0
  All Time: 156702


Membership:
  Registered Today :0
  This Hour:0
  This Month:0
  Total:14
  Banned:1

{online}
{inform_torrent}
Friend:
We Recomend
Trend
Trend
Ad1

Search In Site

Torrents : The Avengers .2012 DVDRip XviD AC3- 26K
 

Torrent name:The Avengers .2012 DVDRip XviD AC3- 26K

Seeds:2

Leechers:4

Health: 

Total size:624.03 MB

Torrent added:2012-05-21 00:15:45

Info hash:46A4F44D2C393C876C971F0DAA1F07FCB1CF97FA


Description:
 

[code]
2011 DVDRip XviD AC3-26K


Sources:
DVDR

Notes:
Encoded the video added a few filters to make it look nice :)


Greetz:
To all the people who have helped me :P you know who you are

Anything to offer email us @: [email protected]

Video
ID                                       : 0
Format                                   : MPEG-4 Visual
Format profile                           : Advanced [email protected]
Format settings, BVOP                    : 2
Format settings, QPel                    : No
Format settings, GMC                     : No warppoints
Format settings, Matrix                  : Default (H.263)
Muxing mode                              : Packed bitstream
Codec ID                                 : XVID
Codec ID/Hint                            : XviD
Duration                                 : 1h 32mn
Bit rate                                 : 2 295 Kbps
Width                                    : 720 pixels
Height                                   : 388 pixels
Display aspect ratio                     : 1.856
Frame rate                               : 25.000 fps
Color space                              : YUV
Chroma subsampling                       : 4:2:0
Bit depth                                : 8 bits
Scan type                                : Progressive
Compression mode                         : Lossy
Bits/(Pixel*Frame)                       : 0.329
Stream size                              : 1.49 GiB (83%)
Writing library                          : XviD 1.2.1 (UTC 2008-12-04)

Audio
ID                                       : 1
Format                                   : AC-3
Format/Info                              : Audio Coding 3
Mode extension                           : CM (complete main)
Codec ID                                 : 2000
Duration                                 : 1h 32mn
Bit rate mode                            : Constant
Bit rate                                 : 448 Kbps
Channel(s)                               : 6 channels
Channel positions                        : Front: L C R, Side: L R, LFE
Sampling rate                            : 48.0 KHz
Bit depth                                : 16 bits
Compression mode                         : Lossy
Stream size                              : 298 MiB (16%)
Alignment                                : Aligned on interleaves
Interleave, duration                     : 32 ms (0.80 video frame)
Interleave, preload duration             : 32 ms


[/code]

Thank you smallz for banner!

Download utorrent client from http://www.utorrent.com/ before downloading from below magnet link

magnet:?xt=urn:btih:46A4F44D2C393C876C971F0DAA1F07FCB1CF97FA


The Avengers .2012 DVDRip XviD AC3- 26K Fast Download


Ad2

 
 
 
Dear visitor, you went to the site as an unregistered user. We encourage you to register or enter the site under your name.
 
   
 
 (Votes #: 0)