2013Zone For Latest Downloads

 
     
 
Legal Downloads » Torrents » Джон Картер John Carter 720p
Menu
Home Applications
Games Movies
Music TV Shows
Torrents Graphics

Sitemap

RSS
 
Advanced Search
Last News
Site Info
Top Contributors:
  1    supper88 32766
  2    admin 32683
  3    Whisky 10080
  4    Shark_ 8911
  5    creativelivenew 8706
  6    whathesupa 2799
  7    candymypost 840
  8    hvnteam 629
  9    vuong87 3


Articles:
  This Hour: 0
  Today: 20
  This Month: 52
  All Time: 515553


Torrents:
  Today: 0
  Yesterday: 0
  All Time: 156676


Membership:
  Registered Today :0
  This Hour:0
  This Month:0
  Total:14
  Banned:1

{online}
{inform_torrent}
Friend:
Download Nulled Scripts
Torrent Download
Trend
Trend
VPN_ad

Search In Site

Torrents : Джон Картер John Carter 720p
 

Torrent name:Джон Картер John Carter 720p

Seeds:0

Leechers:0

Health: 

Total size:6.78 GB

Torrent added:2012-05-18 21:14:09

Info hash:0491472E53841A7ABA530A4BD3DEE8191CF57F3C


Description:
 

zvuk s TS 

Complete name : D:torentJohn Carter 720p.mkv
 Format : Matroska
 Format version : Version 2
 File size : 6.78 GiB
 Duration : 2h 12mn
 Overall bit rate : 7 356 Kbps
 Encoded date : UTC 2012-05-18 20:05:44
 Writing application : mkvmerge v5.0.1 ('Es ist Sommer') built on Oct 24 2011 19:45:06
 Writing library : libebml v1.2.2 + libmatroska v1.3.0

 Video
 ID : 1
 Format : AVC
 Format/Info : Advanced Video Codec
 Format profile : [email protected]
 Format settings, CABAC : Yes
 Format settings, ReFrames : 12 frames
 Codec ID : V_MPEG4/ISO/AVC
 Duration : 2h 12mn
 Bit rate : 5 500 Kbps
 Width : 1 280 pixels
 Height : 534 pixels
 Display aspect ratio : 2.40:1
 Frame rate : 23.976 fps
 Color space : YUV
 Chroma subsampling : 4:2:0
 Bit depth : 8 bits
 Scan type : Progressive
 Bits/(Pixel*Frame) : 0.336
 Stream size : 4.96 GiB (73%)
 Writing library : x264 core 124 r2197 69a0443
 Encoding settings : cabac=1 / ref=12 / deblock=1:-3:-3 / analyse=0x3:0x113 / me=umh / subme=10 / psy=1 / psy_rd=1.10:0.00 / mixed_ref=1 / me_range=32 / chroma_me=1 / trellis=2 / 8x8dct=1 / cqm=0 / deadzone=21,11 / fast_pskip=0 / chroma_qp_offset=-2 / threads=18 / sliced_threads=0 / nr=0 / decimate=0 / interlaced=0 / bluray_compat=0 / constrained_intra=0 / bframes=8 / b_pyramid=2 / b_adapt=2 / b_bias=0 / direct=3 / weightb=1 / open_gop=0 / weightp=2 / keyint=240 / keyint_min=24 / scenecut=40 / intra_refresh=0 / rc_lookahead=240 / rc=2pass / mbtree=1 / bitrate=5500 / ratetol=1.0 / qcomp=0.70 / qpmin=0 / qpmax=69 / qpstep=4 / cplxblur=20.0 / qblur=0.5 / ip_ratio=1.40 / aq=1:0.90
 Language : English
 Default : Yes
 Forced : No

 Audio #1
 ID : 2
 Format : AC-3
 Format/Info : Audio Coding 3
 Mode extension : CM (complete main)
 Codec ID : A_AC3
 Duration : 2h 12mn
 Bit rate mode : Constant
 Bit rate : 320 Kbps
 Channel(s) : 2 channels
 Channel positions : Front: L R
 Sampling rate : 48.0 KHz
 Bit depth : 16 bits
 Compression mode : Lossy
 Stream size : 302 MiB (4%)
 Title : Dub
 Language : Russian
 Default : Yes
 Forced : No

 Audio #2
 ID : 3
 Format : DTS
 Format/Info : Digital Theater Systems
 Codec ID : A_DTS
 Duration : 2h 12mn
 Bit rate mode : Constant
 Bit rate : 1 510 Kbps
 Channel(s) : 6 channels
 Channel positions : Front: L C R, Side: L R, LFE
 Sampling rate : 48.0 KHz
 Bit depth : 24 bits
 Compression mode : Lossy
 Stream size : 1.39 GiB (21%)
 Title : Eng
 Language : English
 Default : No
 Forced : No

Download utorrent client from http://www.utorrent.com/ before downloading from below magnet link

magnet:?xt=urn:btih:0491472E53841A7ABA530A4BD3DEE8191CF57F3C


Джон Картер John Carter 720p Fast Download


Cheap VPN

 
 
 
Dear visitor, you went to the site as an unregistered user. We encourage you to register or enter the site under your name.
 
   
 
 (Votes #: 0)