2013Zone For Latest Downloads

 
     
 
Legal Downloads » Torrents » BattleShip 2012 TS XViD AC3-ADTRG
Menu
Home Applications
Games Movies
Music TV Shows
Torrents Graphics

Sitemap

RSS
 
Advanced Search
Last News
Site Info
Top Contributors:
  1    supper88 32766
  2    admin 32693
  3    Whisky 10080
  4    Shark_ 8911
  5    creativelivenew 8706
  6    whathesupa 2799
  7    candymypost 840
  8    hvnteam 629
  9    vuong87 3


Articles:
  This Hour: 0
  Today: 0
  This Month: 62
  All Time: 515562


Torrents:
  Today: 0
  Yesterday: 0
  All Time: 156685


Membership:
  Registered Today :0
  This Hour:0
  This Month:0
  Total:14
  Banned:1

{online}
{inform_torrent}
Friend:
We Recomend
Trend
Trend
Ad1

Search In Site

Torrents : BattleShip 2012 TS XViD AC3-ADTRG
 

Torrent name:BattleShip 2012 TS XViD AC3-ADTRG

Seeds:0

Leechers:0

Health: 

Total size:1.54 GB

Torrent added:2012-05-21 13:35:30

Info hash:2ABC380945BC2D81866FDC13F838AC34B9AED04B


Description:
 

BattleShip.2012.TS.XViD.AC3-ADTRG
 
http://www.imdb.com/title/tt1440129/

Source - 720p Cam SMY Thanks
Source - missing scenes - Twix Thanks
Source - LiNe Audio - Dragon Exclusive Thanks, awesome work bro

Complete name: BattleShip.2012.TS.XViD.AC3-ADTRG.avi
Format: AVI
Format/Info: Audio Video Interleave
File size: 1.53 GiB
Duration: 2h 1mn
Overall bit rate: 1 800 Kbps
Writing library: VirtualDub build 34703/release

Video
ID: 0
Format: MPEG-4 Visual
Codec ID: XVID
Bit rate: 1 598 Kbps
Width: 720 pixels
Height: 320 pixels
Display aspect ratio: 2.25:1
Frame rate: 30.000 fps
Stream size: 1.36 GiB (89%)

Audio
ID: 1
Format: AC-3
Bit rate: 192 Kbps
Channel(s): 2 channels
Channel positions: Front: L R
Stream size: 165 MiB (11%) Encoder - Jiinx


Poster:

 
http://i.imgur.com/Zl18M.jpg


Screens:

 
http://i.imgur.com/3clGl.jpg

 
http://i.imgur.com/jHn3c.jpg

 
http://i.imgur.com/Io8fD.jpg


ENJOY!

Download utorrent client from http://www.utorrent.com/ before downloading from below magnet link

magnet:?xt=urn:btih:2ABC380945BC2D81866FDC13F838AC34B9AED04B


BattleShip 2012 TS XViD AC3-ADTRG Fast Download


Ad2

 
 
 
Dear visitor, you went to the site as an unregistered user. We encourage you to register or enter the site under your name.
 
   
 
 (Votes #: 0)