2013Zone For Latest Downloads

 
     
 
Legal Downloads » Torrents » The Wings Of The Dove [1997] BRRip XviD - CODY
Menu
Home Applications
Games Movies
Music TV Shows
Torrents Graphics

Sitemap

RSS
 
Advanced Search
Last News
Site Info
Top Contributors:
  1    supper88 32766
  2    admin 32723
  3    Whisky 10080
  4    Shark_ 8911
  5    creativelivenew 8706
  6    whathesupa 2799
  7    candymypost 840
  8    hvnteam 629
  9    vuong87 3


Articles:
  This Hour: 0
  Today: 0
  This Month: 31
  All Time: 515497


Torrents:
  Today: 0
  Yesterday: 0
  All Time: 156680


Membership:
  Registered Today :0
  This Hour:0
  This Month:0
  Total:14
  Banned:1

{online}
{inform_torrent}
Friend:
Full Download Scripts
Torrent Download
Trend
Trend

Search In Site

Torrents : The Wings Of The Dove [1997] BRRip XviD - CODY
 

Torrent name:The Wings Of The Dove [1997] BRRip XviD - CODY

Seeds:0

Leechers:0

Health: 

Total size:796.88 MB

Torrent added:2012-05-22 01:46:01

Info hash:22D7BF58649F4C4B9836CCFA5D031853943D8E63


Description:
 

General
Complete name                            : The Wings Of The Dove [1997] BRRip XviD - CODY.avi
Format                                   : AVI
Format/Info                              : Audio Video Interleave
Format profile                           : OpenDML
Format settings                          : rec
File size                                : 797 MiB
Duration                                 : 1h 48mn
Overall bit rate mode                    : Variable
Overall bit rate                         : 1 024 Kbps

Video
ID                                       : 0
Format                                   : MPEG-4 Visual
Format profile                           : Advanced [email protected]
Format settings, BVOP                    : 4
Format settings, QPel                    : No
Format settings, GMC                     : No warppoints
Format settings, Matrix                  : Default (H.263)
Codec ID                                 : XVID
Codec ID/Hint                            : XviD
Duration                                 : 1h 48mn
Bit rate                                 : 896 Kbps
Width                                    : 720 pixels
Height                                   : 304 pixels
Display aspect ratio                     : 2.35:1
Frame rate                               : 23.976 fps
Color space                              : YUV
Chroma subsampling                       : 4:2:0
Bit depth                                : 8 bits
Scan type                                : Progressive
Compression mode                         : Lossy
Bits/(Pixel*Frame)                       : 0.171
Stream size                              : 697 MiB (87%)
Writing library                          : XviD 1.2.1 (UTC 2008-12-04)

Audio
ID                                       : 1
Format                                   : MPEG Audio
Format version                           : Version 1
Format profile                           : Layer 3
Mode                                     : Joint stereo
Mode extension                           : MS Stereo
Codec ID                                 : 55
Codec ID/Hint                            : MP3
Duration                                 : 1h 42mn
Bit rate mode                            : Variable
Bit rate                                 : 128 Kbps
Channel(s)                               : 2 channels
Sampling rate                            : 48.0 KHz
Compression mode                         : Lossy
Stream size                              : 93.4 MiB (12%)
Alignment                                : Aligned on interleaves
Interleave, duration                     : 26 ms (0.61 video frame)
Interleave, preload duration             : 174 ms
Writing library                          : L3.99r
Encoding settings                        : -m j -V 4 -q 2 -lowpass 17 -b 128


IMDB link:                                 http://www.imdb.com/title/tt0120520/


Subtitles included                       : Romanian


Please seed at least 1,5:1. this way this torrent has a chance to survive !


Thanks. Enjoy !!

Download utorrent client from http://www.utorrent.com/ before downloading from below magnet link

magnet:?xt=urn:btih:22D7BF58649F4C4B9836CCFA5D031853943D8E63


The Wings Of The Dove [1997] BRRip XviD - CODY Fast Download



 
 
 
Dear visitor, you went to the site as an unregistered user. We encourage you to register or enter the site under your name.
 
   
 
 (Votes #: 0)