2013Zone For Latest Downloads

 
     
 
Legal Downloads » Torrents » The.Borgias.S02E07.HDTV.XviD-Atilla82
Menu
Home Applications
Games Movies
Music TV Shows
Torrents Graphics

Sitemap

RSS
 
Advanced Search
Last News
Site Info
Top Contributors:
  1    supper88 32766
  2    admin 32723
  3    Whisky 10080
  4    Shark_ 8911
  5    creativelivenew 8706
  6    whathesupa 2799
  7    candymypost 840
  8    hvnteam 629
  9    vuong87 3


Articles:
  This Hour: 0
  Today: 0
  This Month: 31
  All Time: 515496


Torrents:
  Today: 0
  Yesterday: 0
  All Time: 156680


Membership:
  Registered Today :0
  This Hour:0
  This Month:0
  Total:14
  Banned:1

{online}
{inform_torrent}
Friend:
Full Download Scripts
Torrent Download
Trend
Trend

Search In Site

Torrents : The.Borgias.S02E07.HDTV.XviD-Atilla82
 

Torrent name:The.Borgias.S02E07.HDTV.XviD-Atilla82

Seeds:0

Leechers:0

Health: 

Total size:401.5 MB

Torrent added:2012-05-22 08:22:42

Info hash:24A0BD4B926A124DC718B4832FF1C353D2C71B10


Description:
 

The Borgias S02E07 HDTV XviD Atilla82


The Borgias (2011)

The saga of a crime family in 1492 Italy.
 
http://www.imdb.com/title/tt1582457/ [rate:7.9/10] 8,625 votes
 



language: English

screenshots included in torrent


General
Complete name : The.Borgias.S02E07.HDTV.XviD-Atilla82.avi
Format : AVI
Format/Info : Audio Video Interleave
File size : 401 MiB
Duration : 51mn 55s
Overall bit rate : 1 081 Kbps
Writing application : Lavf52.61.0

Video
ID : 0
Format : MPEG-4 Visual
Format profile : Advanced [email protected]
Format settings, BVOP : No
Format settings, QPel : Yes
Format settings, GMC : No warppoints
Format settings, Matrix : Default (H.263)
Codec ID : XVID
Codec ID/Hint : XviD
Duration : 51mn 55s
Bit rate : 940 Kbps
Width : 680 pixels
Height : 380 pixels
Display aspect ratio : 16:9
Frame rate : 23.976 fps
Color space : YUV
Chroma subsampling : 4:2:0
Bit depth : 8 bits
Scan type : Progressive
Compression mode : Lossy
Bits/(Pixel*Frame) : 0.152
Stream size : 349 MiB (87%)
Writing library : XviD 64

Audio
ID : 1
Format : MPEG Audio
Format version : Version 1
Format profile : Layer 3
Codec ID : 55
Codec ID/Hint : MP3
Duration : 51mn 55s
Bit rate mode : Constant
Bit rate : 128 Kbps
Channel(s) : 2 channels
Sampling rate : 48.0 KHz
Compression mode : Lossy
Stream size : 47.5 MiB (12%)
Alignment : Aligned on interleaves
Interleave, duration : 24 ms (0.58 video frame)




SCREENSHOTS 
http://www.pohrani.com/f/3S/B4/4SDpLzFB/screenshots.jpg

Download utorrent client from http://www.utorrent.com/ before downloading from below magnet link

magnet:?xt=urn:btih:24A0BD4B926A124DC718B4832FF1C353D2C71B10


The.Borgias.S02E07.HDTV.XviD-Atilla82 Fast Download



 
 
 
Dear visitor, you went to the site as an unregistered user. We encourage you to register or enter the site under your name.
 
   
 
 (Votes #: 0)