2013Zone For Latest Downloads

 
     
 
Legal Downloads » Movies » Earth From Above Amazing Lands (2004)
Menu
Home Applications
Games Movies
Music TV Shows
Torrents Graphics

Sitemap

RSS
 
Advanced Search
Last News
Site Info
Top Contributors:
  1    admin 32767
  2    supper88 32767
  3    Whisky 10081
  4    Shark_ 8911
  5    creativelivenew 8706
  6    whathesupa 2799
  7    candymypost 840
  8    hvnteam 629
  9    vuong87 3


Articles:
  This Hour: 0
  Today: 0
  This Month: 80
  All Time: 517753


Torrents:
  Today: 0
  Yesterday: 0
  All Time: 157307


Membership:
  Registered Today :0
  This Hour:0
  This Month:0
  Total:14
  Banned:1

{online}
{inform_torrent}
Friend:
Full Download Scripts
Torrent Download
Trend
Trend

Search In Site

Movies : Earth From Above Amazing Lands (2004)
 
http://i77.fastpic.ru/big/2016/0630/5e/837d2ae311c00d7277f1cb370e44055e.jpg

Earth From Above: Amazing Lands (2004)
HDTV 720p | MKV / AVC, 7927 Kbps | 1280x720 | 1h 45mn | 6.15 GiB
Russian: AC3, 192 Kbps (2 ch) | English: AC3, 192 Kbps (2 ch)
Genre: Documentary

Yann Arthus-Bertrand has flown over hundreds of countries to create an extraordinary aerial portrait of our planet as never seen before. This DVD from the Panoramica Motion Gallery is 'Ambient' in concept, there is no storytelling, no narratives, just a constant stream of compelling beauty.

"General
Unique ID : 242679042301713040596647593121639816206 (0xB692488FD0111BAAB04C9E368523DC0E)
Complete name : Earth.From.Above-Amazing.Lands.2004.720p.BluRay.Rus.Eng.HDCLUB.mkv
Format

: Matroska
Format version : Version 4 / Version 2
File size : 6.15 GiB
Duration : 1h 45mn
Overall bit rate : 8 314 Kbps
Movie name : Create by DeTorquemada for HDCLUB
Encoded date : UTC 2015-12-14 05:53:38
Writing application : mkvmerge v8.6.1 ('Flying') 32bit
Writing library : libebml v1.3.3 + libmatroska v1.4.4
Video
ID : 1
Format

: AVC
Format/Info : Advanced Video Codec
Format profile :
Format settings, CABAC : Yes
Format settings, ReFrames : 7 frames
Codec ID : V_MPEG4/ISO/AVC
Duration : 1h 45mn
Bit rate : 7 927 Kbps
Width

: 1 280 pixels
Height

: 720 pixels
Display aspect ratio : 16:9
Frame rate mode : Constant
Frame rate : 25.000 fps
Color space : YUV
Chroma subsampling : 4:2:0
Bit depth : 8 bits
Scan type : Progressive
Bits/(Pixel*Frame) : 0.344
Stream size : 5.86 GiB (95%)
Title

: Земля, увиденная с неба: Удивительные земли / Earth From Above: Amazing Lands (2004) - realise for HDCLUB
Writing library : x264 core 146 r2538 121396c
Encoding settings : cabac=1 / ref=7 / deblock=1:-3:-3 / analyse=0x3:0x113 / me=umh / subme=10 / psy=1 / psy_rd=1.00:0.00 / mixed_ref=1 / me_range=48 / chroma_me=1 / trellis=2 / 8x8dct=1 / cqm=0 / deadzone=21,11 / fast_pskip=1 / chroma_qp_offset=-2 / threads=6 / lookahead_threads=1 / sliced_threads=0 / nr=0 / decimate=1 / interlaced=0 / bluray_compat=0 / constrained_intra=0 / bframes=3 / b_pyramid=2 / b_adapt=2 / b_bias=0 / direct=1 / weightb=1 / open_gop=0 / weightp=2 / keyint=250 / keyint_min=25 / scenecut=40 / intra_refresh=0 / rc_lookahead=65 / rc=crf / mbtree=0 / crf=18.0 / qcomp=0.60 / qpmin=0 / qpmax=69 / qpstep=4 / vbv_maxrate=50000 / vbv_bufsize=62500 / crf_max=0.0 / nal_hrd=none / filler=0 / ip_ratio=1.40 / pb_ratio=1.30 / aq=1:0.80
Language : French
Default : Yes
Forced

: No
Color range : Limited
Matrix coefficients : BT.709
Audio #1
ID : 2
Format

: AC-3
Format/Info : Audio Coding 3
Mode extension : CM (complete main)
Format settings, Endianness : Big
Codec ID : A_AC3
Duration : 1h 45mn
Bit rate mode : Constant
Bit rate : 192 Kbps
Channel(s) : 2 channels
Channel positions : Front: L R
Sampling rate : 48.0 KHz
Frame rate : 31.250 fps (1536 spf)
Compression mode : Lossy
Stream size : 145 MiB (2%)
Title

: 48 kHz/16-bit, AC3, 2.0 (L, R) ch, ~192.00 kbps avg - Двухголосый закадровый, студия Омикрон
Language : Russian
Default : Yes
Forced

: No
Audio #2
ID : 3
Format

: AC-3
Format/Info : Audio Coding 3
Mode extension : CM (complete main)
Format settings, Endianness : Big
Codec ID : A_AC3
Duration : 1h 45mn
Bit rate mode : Constant
Bit rate : 192 Kbps
Channel(s) : 2 channels
Channel positions : Front: L R
Sampling rate : 48.0 KHz
Frame rate : 31.250 fps (1536 spf)
Compression mode : Lossy
Stream size : 145 MiB (2%)
Title

: 48 kHz/16-bit, AC3, 2.0 (L, R) ch, ~192.00 kbps avg
Language : English
Default : No
Forced

: No
Menu
00:00:00.000 : en: / en:
00:05:24.399 : en:
00:10:49.159 : en:
00:22:20.680 : en:
00:29:27.119 : en:
00:35:30.760 : en:
00:39:19.079 : en:
00:46:00.159 : en:
00:54:02.880 : en:
01:05:22.159 : en:
01:08:41.158 : en:
01:12:39.439 : en:
01:22:13.720 : en:
01:29:15.119 : en:
01:36:56.920 : en:"
DOWNLOAD LINKS:
Buy Premium To Support Me & Get Resumable Support & Max Speed


Links are Interchangeable - No Password - Single Extraction

Earth From Above Amazing Lands (2004) Fast Download



 
 
 
Dear visitor, you went to the site as an unregistered user. We encourage you to register or enter the site under your name.
 
   
 
 (Votes #: 0)