2013Zone For Latest Downloads

 
     
 
Legal Downloads » Movies » The Jungle Book 2016 1080p BluRay HEVC DD5.1 x265
Menu
Home Applications
Games Movies
Music TV Shows
Torrents Graphics

Sitemap

RSS
 
Advanced Search
Last News
Site Info
Top Contributors:
  1    admin 32767
  2    supper88 32767
  3    Whisky 10081
  4    Shark_ 8911
  5    creativelivenew 8706
  6    whathesupa 2799
  7    candymypost 840
  8    hvnteam 629
  9    vuong87 3


Articles:
  This Hour: 0
  Today: 0
  This Month: 80
  All Time: 517752


Torrents:
  Today: 0
  Yesterday: 0
  All Time: 157307


Membership:
  Registered Today :0
  This Hour:0
  This Month:0
  Total:14
  Banned:1

{online}
{inform_torrent}
Friend:
Full Download Scripts
Torrent Download
Trend
Trend

Search In Site

Movies : The Jungle Book 2016 1080p BluRay HEVC DD5.1 x265
 
http://i80.fastpic.ru/big/2016/0810/ea/f324ea32d30b7d3a206fcf56d2266bea.jpg

The Jungle Book 2016 1080p BluRay HEVC DD5.1 x265
Size: 1.65 GiB (1768167697 Bytes)
Spoken language(s): English

Source: The Jungle Book 2016 1080p BluRay x264-DTS-FGT (6.81 GB)
__--__--__--__--__--__--__--__--__--__--__--__--__--
Complete name : The.Jungle.Book.2016.1080p.BluRay.HEVC.DD5.1.x265.mkv
Format
: Matroska
Format version : Version 4 / Version 2
File size
: 1.65 GiB
Duration
: 1 h 45 min
Overall bit rate : 2 226 kb/s
Encoded date : UTC 2016-08-06 19:31:02
Writing application

: mkvmerge v9.3.1 ('Mask Machine') 32bit
Writing library : libebml v1.3.4 + libmatroska v1.4.

ID : 1
Format
: HEVC
Format/Info
: High Efficiency Video Coding
Format profile : [email protected]@Main
Codec ID
: V_MPEGH/ISO/HEVC
Duration
: 1 h 45 min
Bit rate
: 1 840 kb/s
Width
: 1 920 pixels
Height
: 1 040 pixels
Display aspect ratio : 1.85:1
Original display aspect ratio : 1.85:1
Frame rate mode : Constant
Frame rate
: 23.976 (24000/1001) FPS
Color space
: YUV
Chroma subsampling

: 4:2:0
Bit depth
: 8 bits
Bits/(Pixel*Frame)

: 0.038
Stream size
: 1.36 GiB (83%)
Writing library : x265 2.0+1-6a9b6a828f79:[Linux][GCC 5.4.0][64 bit] 8bit
Language
: English
Default
: Yes
Forced
: No

Audio

ID : 2
Format
: AC-3
Format/Info
: Audio Coding 3
Mode extension : CM (complete main)
Format settings, Endianness : Big
Codec ID
: A_AC3
Duration
: 1 h 45 min
Bit rate mode : Constant
Bit rate
: 384 kb/s
Channel(s)
: 6 channels
Channel positions: Front: L C R, Side: L R, LFE
Sampling rate : 48.0 kHz
Frame rate
: 31.250 FPS (1536 spf)
Compression mode : Lossy
Stream size
: 291 MiB (17%)
Title
: AC-3 5.1
Language
: English
Default
: Yes
Forced
: No
DOWNLOAD:


The Jungle Book 2016 1080p BluRay HEVC DD5.1 x265 Fast Download



 
 
 
Dear visitor, you went to the site as an unregistered user. We encourage you to register or enter the site under your name.
 
   
 
 (Votes #: 0)