2013Zone For Latest Downloads

 
     
 
Legal Downloads » Music » Michael Jackson - Immortal (2011) [2CD] {Epic Deluxe Edition}
Menu
Home Applications
Games Movies
Music TV Shows
Torrents Graphics

Sitemap

RSS
 
Advanced Search
Last News
Site Info
Top Contributors:
  1    supper88 32766
  2    admin 32671
  3    Whisky 10080
  4    Shark_ 8911
  5    creativelivenew 8706
  6    whathesupa 2799
  7    candymypost 840
  8    hvnteam 629
  9    vuong87 3


Articles:
  This Hour: 0
  Today: 0
  This Month: 20
  All Time: 515636


Torrents:
  Today: 0
  Yesterday: 0
  All Time: 156702


Membership:
  Registered Today :0
  This Hour:0
  This Month:0
  Total:14
  Banned:1

{online}
{inform_torrent}
Friend:
We Recomend
Trend
Trend

Search In Site

Music : Michael Jackson - Immortal (2011) [2CD] {Epic Deluxe Edition}
 

http://i67.fastpic.ru/big/2015/0126/d2/85e4e522b1a1eda67827808aa1091ad2.jpg
Michael Jackson - Immortal (2011) [2CD] {Epic Deluxe Edition}
EAC rip (secure mode) | FLAC (tracks)+CUE+LOG -> 741 Mb | MP3 @320 -> 246 Mb
Full Artwork @ 300 dpi (jpg) -> 112 Mb | 5% repair rar
© 2011 Epic / MJJ Productions / Sony Music | 88697 99394 2
Pop / Soul / R'n'B / Dance Pop

"IMMORTAL takes a fresh, creative approach in redesigning and reimagining more than 40 of Michael Jackson's greatest original recordings into a compilation that allows listeners to experience his music in an entirely new way. The album is the musical tapestry for Cirque du Soleil's Michael Jackson THE IMMORTAL World Tour. The project was led by esteemed musical designer, Kevin Antunes (Justin Timberlake, Rihanna, Madonna). After spending a year in the studio working with Michael's original multi-track master recordings, Kevin created IMMORTAL which offers listeners a new soundscape to Michael's artistry while preserving the power and familiarity of his unparalleled voice and his legendary tracks."

http://i58.fastpic.ru/big/2015/0126/dd/cf5e24843e7b3e9c6bedd9b891172ddd.jpg

"Kevin Antunes comments, "Michael's legacy as the greatest entertainer of our lifetime is inspiring beyond words. It was clear from the start that Michael's voice and overall musical essence was the sole/soul source of creative energy driving the project. From the studio to the stage, there's an undeniable integrity and resolute truth in Michael's vocal performances that are highlighted in the Immortal arrangements. It was built with love and respect for Michael's music, his family, and his millions of fans around the world."

IMMORTAL is sure to touch the hearts of passionate Michael fans as the album unfolds his musical legacy with redesigned versions of his hits, electrifying mashups and newly discovered outtakes fans have never heard before including an alternate take on the Jackson 5's "ABC" and a choir that Michael recorded for "They Don't Really Care About Us."

Fans are saying: "The music is incredibly exciting and it stands on its own as a listening experience. While no one can improve upon Michael's music, these remixes, mash-ups and enhancements, while intended for the show, give us the chance to hear Michael's music in a new and fresh way. All in all, it is a must have album for every fan of Michael's.""


http://i64.fastpic.ru/big/2015/0126/f9/14afa7522f4a01472ded8ba2e8f663f9.jpg


tracklist:
Disc: 1

01. Workin Day And Night (Immortal Version)
02. The Immortal Intro (Immortal Version)
03. Childhood (Immortal Version)
04. Wanna Be Startin Somethin (Immortal Version)
05. Shake Your Body (Down To The Ground) (Immortal Version)
06. Dancing Machine/Blame It On The Boogie (Immortal Version)
07. Ben (Immortal Version)
08. This Place Hotel (Immortal Version)
09. Smooth Criminal (Immortal Version)
10. Dangerous (Immortal Version)
11. The Mime Segment: (I Like) The Way You Love Me/Speed Demon/Another Part Of Me (Immortal Version)
12. The Jackson 5 Medley (Immortal Version)
13. Speechless/Human Nature (Immortal Version)
14. Is It Scary/Threatened (Immortal Version)
15. Thriller (Immortal Version)

Disc: 2
01. You Are Not Alone/I Just Can't Stop Loving You (Immortal Version)
02. Beat It/State Of Shock (Immortal Version)
03. Jam (Immortal Version)
04. Planet Earth/Earth Song (Immortal Version)
05. Scream/Little Susie (Immortal Version)
06. Gone Too Soon (Immortal Version)
07. They Don't Care About Us (Immortal Version)
08. Will You Be There (Immortal Version)
09. I ll Be There (Immortal Version)
10. Immortal Megamix: Can You Feel It/Don't Stop Til You Get Enough/Billie Jean/Black Or White (Immortal Version)
11. Man In The Mirror (Immortal Version)
12. Remember The Time/Bad (Immortal Version)

Exact Audio Copy V1.0 beta 3 from 29. August 2011

EAC extraction logfile from 21. November 2011, 15:24

Michael Jackson / Immortal {Deluxe Ed.} (Disc 1)

Used drive : DVDRW IDE 16X Adapter: 3 ID: 0

Read mode : Secure
Utilize accurate stream : Yes
Defeat audio cache : Yes
Make use of C2 pointers : No

Read offset correction : 12
Overread into Lead-In and Lead-Out : No
Fill up missing offset samples with silence : Yes
Delete leading and trailing silent blocks : No
Null samples used in CRC calculations : Yes
Used interface : Native Win32 interface for Win NT & 2000
Gap handling : Appended to previous track

Used output format : User Defined Encoder
Selected bitrate : 320 kBit/s
Quality : High
Add ID3 tag : No
Command line compressor : C:\Program Files (x86)\FLAC\flac.exe
Additional command line options : -8 -V -T "ARTIST=%artist%" -T "TITLE=%title%" -T "ALBUM=%albumtitle%" -T "DATE=%year%" -T "TRACKNUMBER=%tracknr%" -T "GENRE=%genre%" -T "COMMENT=EAC FLAC 1.2.1 -8" %source%

TOC of the extracted CD Track | Start | Length | Start sector | End sector
-----------
1 | 0:00.00 | 3:36.53 | 0 | 16252
2 | 3:36.53 | 3:07.56 | 16253 | 30333
3 | 6:44.34 | 4:35.46 | 30334 | 51004
4 | 11:20.05 | 3:08.16 | 51005 | 65120
5 | 14:28.21 | 2:27.49 | 65121 | 76194
6 | 16:55.70 | 4:04.57 | 76195 | 94551
7 | 21:00.52 | 3:44.29 | 94552 | 111380
8 | 24:45.06 | 2:08.49 | 111381 | 121029
9 | 26:53.55 | 1:59.65 | 121030 | 130019
10 | 28:53.45 | 2:41.62 | 130020 | 142156
11 | 31:35.32 | 2:52.00 | 142157 | 155056
12 | 34:27.32 | 3:45.56 | 155057 | 171987
13 | 38:13.13 | 3:20.27 | 171988 | 187014
14 | 41:33.40 | 5:03.71 | 187015 | 209810
15 | 46:37.36 | 3:37.65 | 209811 | 226150

Track 1 Filename E:\Michael Jackson - Immortal (2011) [FLAC] (2-CD) {Deluxe Ed.}\Disc 1\01 - Workin' Day And Night.wav Pre-gap length 0:00:02.00 Peak level 98.8 %
Extraction speed 4.8 X
Track quality 100.0 %
Test CRC 8D630264
Copy CRC 8D630264
Track not present in AccurateRip database
Copy OK

Track 2 Filename E:\Michael Jackson - Immortal (2011) [FLAC] (2-CD) {Deluxe Ed.}\Disc 1\02 - The Immortal Intro.wav Peak level 98.8 %
Extraction speed 5.1 X
Track quality 100.0 %
Test CRC A4BF6238
Copy CRC A4BF6238
Track not present in AccurateRip database
Copy OK

Track 3 Filename E:\Michael Jackson - Immortal (2011) [FLAC] (2-CD) {Deluxe Ed.}\Disc 1\03 - Childhood.wav Peak level 99.9 %
Extraction speed 5.9 X
Track quality 100.0 %
Test CRC 7542D476
Copy CRC 7542D476
Track not present in AccurateRip database
Copy OK

Track 4 Filename E:\Michael Jackson - Immortal (2011) [FLAC] (2-CD) {Deluxe Ed.}\Disc 1\04 - Wanna Be Startin' Somethin'.wav Peak level 98.8 %
Extraction speed 1.9 X
Track quality 99.9 %
Test CRC EF93644D
Copy CRC EF93644D
Track not present in AccurateRip database
Copy OK

Track 5 Filename E:\Michael Jackson - Immortal (2011) [FLAC] (2-CD) {Deluxe Ed.}\Disc 1\05 - Shake Your Body (Down To The Ground).wav Peak level 98.8 %
Extraction speed 5.9 X
Track quality 100.0 %
Test CRC 48FB9500
Copy CRC 48FB9500
Track not present in AccurateRip database
Copy OK

Track 6 Filename E:\Michael Jackson - Immortal (2011) [FLAC] (2-CD) {Deluxe Ed.}\Disc 1\06 - Dancing Machine~Blame It On The Boogie.wav Peak level 98.8 %
Extraction speed 6.8 X
Track quality 100.0 %
Test CRC A7B6803C
Copy CRC A7B6803C
Track not present in AccurateRip database
Copy OK

Track 7 Filename E:\Michael Jackson - Immortal (2011) [FLAC] (2-CD) {Deluxe Ed.}\Disc 1\07 - Ben.wav Peak level 98.8 %
Extraction speed 7.0 X
Track quality 100.0 %
Test CRC 08B02214
Copy CRC 08B02214
Track not present in AccurateRip database
Copy OK

Track 8 Filename E:\Michael Jackson - Immortal (2011) [FLAC] (2-CD) {Deluxe Ed.}\Disc 1\08 - This Place Hotel.wav Peak level 98.8 %
Extraction speed 6.6 X
Track quality 100.0 %
Test CRC 32616BCA
Copy CRC 32616BCA
Track not present in AccurateRip database
Copy OK

Track 9 Filename E:\Michael Jackson - Immortal (2011) [FLAC] (2-CD) {Deluxe Ed.}\Disc 1\09 - Smooth Criminal.wav Peak level 98.8 %
Extraction speed 1.4 X
Track quality 99.9 %
Test CRC BF5BDA48
Copy CRC BF5BDA48
Track not present in AccurateRip database
Copy OK

Track 10 Filename E:\Michael Jackson - Immortal (2011) [FLAC] (2-CD) {Deluxe Ed.}\Disc 1\10 - Dangerous.wav Peak level 99.5 %
Extraction speed 7.2 X
Track quality 100.0 %
Test CRC A61BB757
Copy CRC A61BB757
Track not present in AccurateRip database
Copy OK

Track 11 Filename E:\Michael Jackson - Immortal (2011) [FLAC] (2-CD) {Deluxe Ed.}\Disc 1\11 - The Mime Segment _ (I Like) The Way You Love Me~Speed Demon~Another Part Of Me.wav Peak level 98.8 %
Extraction speed 1.9 X
Track quality 99.9 %
Test CRC 907A7746
Copy CRC 907A7746
Track not present in AccurateRip database
Copy OK

Track 12 Filename E:\Michael Jackson - Immortal (2011) [FLAC] (2-CD) {Deluxe Ed.}\Disc 1\12 - The Jackson 5 Medley.wav Peak level 90.3 %
Extraction speed 2.3 X
Track quality 99.9 %
Test CRC 9B6EF627
Copy CRC 9B6EF627
Track not present in AccurateRip database
Copy OK

Track 13 Filename E:\Michael Jackson - Immortal (2011) [FLAC] (2-CD) {Deluxe Ed.}\Disc 1\13 - Speechless~Human Nature.wav Peak level 98.8 %
Extraction speed 8.1 X
Track quality 100.0 %
Test CRC D27C2D6B
Copy CRC D27C2D6B
Track not present in AccurateRip database
Copy OK

Track 14 Filename E:\Michael Jackson - Immortal (2011) [FLAC] (2-CD) {Deluxe Ed.}\Disc 1\14 - Is It Scary~Threatened.wav Peak level 98.8 %
Extraction speed 9.0 X
Track quality 100.0 %
Test CRC 7A0A353F
Copy CRC 7A0A353F
Track not present in AccurateRip database
Copy OK

Track 15 Filename E:\Michael Jackson - Immortal (2011) [FLAC] (2-CD) {Deluxe Ed.}\Disc 1\15 - Thriller.wav Peak level 100.0 %
Extraction speed 8.9 X
Track quality 100.0 %
Test CRC 97C47DC3
Copy CRC 97C47DC3
Track not present in AccurateRip database
Copy OK

None of the tracks are present in the AccurateRip database

No errors occurred

End of status report

==== Log checksum 9C3F90691E005C85B0C96CEF9E603F285F0C6B3C36A0499702FF4F2DF9CF6379 ====

Exact Audio Copy V1.0 beta 3 from 29. August 2011

EAC extraction logfile from 21. November 2011, 15:58

Michael Jackson / Immortal {Deluxe Ed.} (Disc 2)

Used drive : DVDRW IDE 16X Adapter: 3 ID: 0

Read mode : Secure
Utilize accurate stream : Yes
Defeat audio cache : Yes
Make use of C2 pointers : No

Read offset correction : 12
Overread into Lead-In and Lead-Out : No
Fill up missing offset samples with silence : Yes
Delete leading and trailing silent blocks : No
Null samples used in CRC calculations : Yes
Used interface : Native Win32 interface for Win NT & 2000
Gap handling : Appended to previous track

Used output format : User Defined Encoder
Selected bitrate : 320 kBit/s
Quality : High
Add ID3 tag : No
Command line compressor : C:\Program Files (x86)\FLAC\flac.exe
Additional command line options : -8 -V -T "ARTIST=%artist%" -T "TITLE=%title%" -T "ALBUM=%albumtitle%" -T "DATE=%year%" -T "TRACKNUMBER=%tracknr%" -T "GENRE=%genre%" -T "COMMENT=EAC FLAC 1.2.1 -8" %source%

TOC of the extracted CD Track | Start | Length | Start sector | End sector
-----------
1 | 0:00.00 | 6:08.42 | 0 | 27641
2 | 6:08.42 | 3:09.12 | 27642 | 41828
3 | 9:17.54 | 2:37.71 | 41829 | 53674
4 | 11:55.50 | 4:01.22 | 53675 | 71771
5 | 15:56.72 | 4:45.09 | 71772 | 93155
6 | 20:42.06 | 3:23.49 | 93156 | 108429
7 | 24:05.55 | 3:37.19 | 108430 | 124723
8 | 27:42.74 | 4:56.37 | 124724 | 146960
9 | 32:39.36 | 1:50.04 | 146961 | 155214
10 | 34:29.40 | 9:08.59 | 155215 | 196373
11 | 43:38.24 | 4:14.42 | 196374 | 215465
12 | 47:52.66 | 4:39.67 | 215466 | 236457

Track 1 Filename E:\Michael Jackson - Immortal (2011) [FLAC] (2-CD) {Deluxe Ed.}\Disc 2\01 - You Are Not Alone~I Just Can't Stop Loving You.wav Pre-gap length 0:00:02.00 Peak level 98.8 %
Extraction speed 5.3 X
Track quality 100.0 %
Test CRC 3AD41FB6
Copy CRC 3AD41FB6
Track not present in AccurateRip database
Copy OK

Track 2 Filename E:\Michael Jackson - Immortal (2011) [FLAC] (2-CD) {Deluxe Ed.}\Disc 2\02 - Beat It~State Of Shock.wav Peak level 99.9 %
Extraction speed 5.5 X
Track quality 100.0 %
Test CRC 8766F672
Copy CRC 8766F672
Track not present in AccurateRip database
Copy OK

Track 3 Filename E:\Michael Jackson - Immortal (2011) [FLAC] (2-CD) {Deluxe Ed.}\Disc 2\03 - Jam.wav Peak level 99.6 %
Extraction speed 5.6 X
Track quality 100.0 %
Test CRC 8209F626
Copy CRC 8209F626
Track not present in AccurateRip database
Copy OK

Track 4 Filename E:\Michael Jackson - Immortal (2011) [FLAC] (2-CD) {Deluxe Ed.}\Disc 2\04 - Planet Earth~Earth Song.wav Peak level 98.8 %
Extraction speed 6.4 X
Track quality 100.0 %
Test CRC 3976E36B
Copy CRC 3976E36B
Track not present in AccurateRip database
Copy OK

Track 5 Filename E:\Michael Jackson - Immortal (2011) [FLAC] (2-CD) {Deluxe Ed.}\Disc 2\05 - Little Susie~Scream.wav Peak level 98.8 %
Extraction speed 7.0 X
Track quality 100.0 %
Test CRC 1DFD6A7D
Copy CRC 1DFD6A7D
Track not present in AccurateRip database
Copy OK

Track 6 Filename E:\Michael Jackson - Immortal (2011) [FLAC] (2-CD) {Deluxe Ed.}\Disc 2\06 - Gone Too Soon.wav Peak level 98.8 %
Extraction speed 7.0 X
Track quality 100.0 %
Test CRC 449DC5E6
Copy CRC 449DC5E6
Track not present in AccurateRip database
Copy OK

Track 7 Filename E:\Michael Jackson - Immortal (2011) [FLAC] (2-CD) {Deluxe Ed.}\Disc 2\07 - They Don't Care About Us.wav Peak level 98.8 %
Extraction speed 7.4 X
Track quality 100.0 %
Test CRC 4820304E
Copy CRC 4820304E
Track not present in AccurateRip database
Copy OK

Track 8 Filename E:\Michael Jackson - Immortal (2011) [FLAC] (2-CD) {Deluxe Ed.}\Disc 2\08 - Will You Be There.wav Peak level 98.8 %
Extraction speed 2.7 X
Track quality 99.9 %
Test CRC 47543856
Copy CRC 47543856
Track not present in AccurateRip database
Copy OK

Track 9 Filename E:\Michael Jackson - Immortal (2011) [FLAC] (2-CD) {Deluxe Ed.}\Disc 2\09 - I'll Be There.wav Peak level 55.1 %
Extraction speed 6.9 X
Track quality 100.0 %
Test CRC 1460F0DE
Copy CRC 1460F0DE
Track not present in AccurateRip database
Copy OK

Track 10 Filename E:\Michael Jackson - Immortal (2011) [FLAC] (2-CD) {Deluxe Ed.}\Disc 2\10 - Immortal Megamix _ Can You Feel It~Don't Stop 'Til You Get Enough~Billie Jean~Black Or White.wav Peak level 100.0 %
Extraction speed 4.2 X
Track quality 99.9 %
Test CRC 56750FA9
Copy CRC 56750FA9
Track not present in AccurateRip database
Copy OK

Track 11 Filename E:\Michael Jackson - Immortal (2011) [FLAC] (2-CD) {Deluxe Ed.}\Disc 2\11 - Man In The Mirror.wav Peak level 99.9 %
Extraction speed 8.9 X
Track quality 100.0 %
Test CRC 09941CE7
Copy CRC 09941CE7
Track not present in AccurateRip database
Copy OK

Track 12 Filename E:\Michael Jackson - Immortal (2011) [FLAC] (2-CD) {Deluxe Ed.}\Disc 2\12 - Remember The Time~Bad.wav Peak level 98.8 %
Extraction speed 2.7 X
Track quality 99.9 %
Test CRC 92C3716B
Copy CRC 92C3716B
Track not present in AccurateRip database
Copy OK

None of the tracks are present in the AccurateRip database

No errors occurred

End of status report

==== Log checksum 9445338210BE737E524028F6D344AB6A767F5C2E1165E937DCFF4466DE502B29 ====

http://i63.fastpic.ru/big/2015/0126/2c/c583c9a86687be876491f7795d4f092c.jpg

http://i65.fastpic.ru/big/2015/0126/48/9647f4d76babd37090a628da9aeff548.jpg

http://i64.fastpic.ru/big/2015/0126/ac/c6b53930140faf0814b2450eb306b5ac.jpg


All thanks goes to the original releaser!
DOWNLOAD LINKS:
Buy Premium To Support Me & Get Resumable Support & Max Speed


Links are Interchangeable - No Password - Single Extraction

 
 
 
Dear visitor, you went to the site as an unregistered user. We encourage you to register or enter the site under your name.
 
   
 
 (Votes #: 0)