2013Zone For Latest Downloads

 
     
 
Legal Downloads » Music » Dream Theater - The Studio Albums 1992-2011 (2014) [11CD Box Set]
Menu
Home Applications
Games Movies
Music TV Shows
Torrents Graphics

Sitemap

RSS
 
Advanced Search
Last News
Site Info
Top Contributors:
  1    supper88 32767
  2    admin 32756
  3    Whisky 10081
  4    Shark_ 8911
  5    creativelivenew 8706
  6    whathesupa 2799
  7    candymypost 840
  8    hvnteam 629
  9    vuong87 3


Articles:
  This Hour: 0
  Today: 0
  This Month: 14
  All Time: 515457


Torrents:
  Today: 0
  Yesterday: 0
  All Time: 156743


Membership:
  Registered Today :0
  This Hour:0
  This Month:0
  Total:14
  Banned:1

{online}
{inform_torrent}
Friend:
Full Download Scripts
Torrent Download
Trend
Trend

Search In Site

Music : Dream Theater - The Studio Albums 1992-2011 (2014) [11CD Box Set]
 
http://i67.fastpic.ru/big/2015/0128/a1/715849721b6f4de870a7fddf33d87da1.jpg

Dream Theater - The Studio Albums 1992-2011 (2014)
EAC | Flac(Image) + Cue + Log & MP3 CBR 320Kbps
11CD | Warner Music, 1686175642 | ~ 5586 or 1892 Mb | Scans Included
Progressive Rock / Progressive Metal

"The Studio Albums 1992-2011 collects the first 10 studio albums from Dream Theater s groundbreaking two-decade-plus career, from 1992 s RIAA gold-certified classic debut, Images & Words to 2011 s GRAMMY® Award-nominated milestone, A Dramatic Turn of Events..."

Dream Theater - The Studio Albums 1992-2011 (2014):

http://i67.fastpic.ru/big/2015/0128/e9/91e6af33ceea6a98b4e5218c0f7f75e9.jpg

CD01: Dream Theater - Images And Words (1992)
EAC | Flac(Image) + Cue + Log & MP3 CBR 320Kbps
Warner Music, 1686175642-1 | ~ 422 or 144 Mb | Scans Included
Progressive Rock / Progressive Metal

"Dream Theater's first album with new vocalist James LaBrie is an excellent mix of progressive metal stylings with heartfelt vocals and thought-provoking lyrics. Guitarist John Petrucci, bassist John Myung, and drummer Mike Portnoy, all of whom trained at Berklee, show impressive ability on their respective instruments. Kevin Moore's keyboards weave strongly through the intricately constructed songs, while operatically trained LaBrie shows an impressive range with his tenor. Standout tracks include the complex "Metropolis, Pt. 1," the Shakespeare-influenced "Pull Me Under" (also released as a single and video), the dramatic "Take the Time," and the 11-minute, thoughtful "Learning to Live." Dream Theater's musicianship and songwriting are a cut above the norm; this is a very good disc.


by Phil Carter, AMG
"

Tracklist:

01. Pull Me Under (8:15)
02. Another Day (4:23)
03. Take The Time (8:21)
04. Surrounded (5:30)
05. Metropolis - Part I 'The Miracle And The Sleeper' (9:32)
06. Under A Glass Moon (7:03)
07. Wait For Sleep (2:32)
08. Learning To Live (11:31)

Exact Audio Copy V1.0 beta 3 from 29. August 2011

EAC extraction logfile from 4. November 2014, 21:01

Dream Theater / The Studio Albums - CD01 - Images And Words

Used drive : Optiarc DVD RW AD-7241S Adapter: 5 ID: 1

Read mode : Secure
Utilize accurate stream : Yes
Defeat audio cache : Yes
Make use of C2 pointers : No

Read offset correction : 48
Overread into Lead-In and Lead-Out : No
Fill up missing offset samples with silence : Yes
Delete leading and trailing silent blocks : No
Null samples used in CRC calculations : Yes
Used interface : Native Win32 interface for Win NT & 2000
Gap handling : Appended to previous track

Used output format : User Defined Encoder
Selected bitrate : 1024 kBit/s
Quality : High
Add ID3 tag : No
Command line compressor : C:\Program Files\EAC1.3\Flac\flac.exe
Additional command line options : -8 -V -T "ARTIST=%artist%" -T "TITLE=%title%" -T "ALBUM=%albumtitle%" -T "DATE=%year%" -T "TRACKNUMBER=%tracknr%" -T "TOTALTRACKS=%numtracks%" -T "GENRE=%genre%" -T "ALBUMARTIST=%albumartist%" -T "ALBUM ARTIST=%albumartist%" -T "COMMENT=EAC Secure Mode, Test & Copy, AccurateRip, FLAC -8" %source%

TOC of the extracted CD Track | Start | Length | Start sector | End sector
-----------
1 | 0:00.00 | 8:14.58 | 0 | 37107
2 | 8:14.58 | 4:23.35 | 37108 | 56867
3 | 12:38.18 | 8:21.05 | 56868 | 94447
4 | 20:59.23 | 5:30.05 | 94448 | 119202
5 | 26:29.28 | 9:32.17 | 119203 | 162119
6 | 36:01.45 | 7:03.35 | 162120 | 193879
7 | 43:05.05 | 2:31.53 | 193880 | 205257
8 | 45:36.58 | 11:30.45 | 205258 | 257052

Track 1 Filename C:\EACcd\01 - Pull Me Under.wav Pre-gap length 0:00:02.00 Peak level 100.0 %
Extraction speed 2.7 X
Track quality 100.0 %
Test CRC B89C99BE
Copy CRC B89C99BE
Accurately ripped (confidence 4) [1E231971] (AR v2)
Copy OK

Track 2 Filename C:\EACcd\02 - Another Day.wav Pre-gap length 0:00:02.23 Peak level 100.0 %
Extraction speed 2.9 X
Track quality 100.0 %
Test CRC 4027BA3A
Copy CRC 4027BA3A
Accurately ripped (confidence 4) [0025AB83] (AR v2)
Copy OK

Track 3 Filename C:\EACcd\03 - Take The Time.wav Peak level 100.0 %
Extraction speed 3.5 X
Track quality 100.0 %
Test CRC 1EE3AD0F
Copy CRC 1EE3AD0F
Accurately ripped (confidence 4) [009D2EAF] (AR v2)
Copy OK

Track 4 Filename C:\EACcd\04 - Surrounded.wav Peak level 100.0 %
Extraction speed 3.7 X
Track quality 100.0 %
Test CRC D3F95F50
Copy CRC D3F95F50
Accurately ripped (confidence 4) 06C4A3C (AR v2)
Copy OK

Track 5 Filename C:\EACcd\05 - Metropolis - Part I ''The Miracle And The Sleeper''.wav Pre-gap length 0:00:00.15 Peak level 100.0 %
Extraction speed 4.2 X
Track quality 100.0 %
Test CRC 6570D4E8
Copy CRC 6570D4E8
Accurately ripped (confidence 4) [53AEFBE5] (AR v2)
Copy OK

Track 6 Filename C:\EACcd\06 - Under A Glass Moon.wav Pre-gap length 0:00:00.62 Peak level 100.0 %
Extraction speed 4.4 X
Track quality 100.0 %
Test CRC A688DABB
Copy CRC A688DABB
Accurately ripped (confidence 4) [CD1AF1D5] (AR v2)
Copy OK

Track 7 Filename C:\EACcd\07 - Wait For Sleep.wav Pre-gap length 0:00:00.35 Peak level 88.3 %
Extraction speed 3.3 X
Track quality 99.9 %
Test CRC 7B95E2C1
Copy CRC 7B95E2C1
Accurately ripped (confidence 4) [EEB49D40] (AR v2)
Copy OK

Track 8 Filename C:\EACcd\08 - Learning To Live.wav Peak level 100.0 %
Extraction speed 5.0 X
Track quality 100.0 %
Test CRC 42566209
Copy CRC 42566209
Accurately ripped (confidence 4) [9A6F6AC6] (AR v2)
Copy OK

All tracks accurately ripped

No errors occurred

End of status report

foobar2000 1.2.9 / Dynamic Range Meter 1.1.1
log date: 2015-01-24 17:08:09

--
Analyzed: Dream Theater / The Studio Albums - CD01 - Images And Words
--

DR Peak RMS Duration Track
--
DR10 0.00 dB -10.89 dB 8:15 01-Pull Me Under
DR11 0.00 dB -13.19 dB 4:23 02-Another Day
DR10 0.00 dB -11.97 dB 8:21 03-Take The Time
DR11 0.00 dB -13.89 dB 5:30 04-Surrounded
DR10 0.00 dB -11.84 dB 9:32 05-Metropolis - Part I 'The Miracle And The Sleeper'
DR11 0.00 dB -12.27 dB 7:03 06-Under A Glass Moon
DR14 -1.07 dB -17.42 dB 2:32 07-Wait For Sleep
DR12 0.00 dB -13.18 dB 11:31 08-Learning To Live
--

Number of tracks: 8
Official DR value: DR11

Samplerate: 44100 Hz
Channels: 2
Bits per sample: 16
Bitrate: 980 kbps
Codec: FLAC

[CUETools log; Date: 24.01.2015 17:07:35; Version: 2.1.4]
[CTDB TOCID: N7F_F38w0tZ5kxlq55x5qUzIHu4-] found.
Track | CTDB Status
1 | (383/394) Accurately ripped
2 | (389/394) Accurately ripped
3 | (389/394) Accurately ripped
4 | (387/394) Accurately ripped
5 | (388/394) Accurately ripped
6 | (378/394) Accurately ripped
7 | (390/394) Accurately ripped
8 | (371/394) Accurately ripped
[AccurateRip ID: 00112e32-007280b1-720d6308] found.
Track [ CRC | V2 ] Status
01 [89825da6|1e231971] (000+014/790) Accurately ripped
02 [1843e76f|0025ab83] (000+014/798) Accurately ripped
03 [1f1a8df7|009d2eaf] (000+014/796) Accurately ripped
04 [2bdebeb4|b06c4a3c] (000+014/794) Accurately ripped
05 [aa09534b|53aefbe5] (000+014/790) Accurately ripped
06 [09397908|cd1af1d5] (000+014/791) Accurately ripped
07 [35e1b2c6|eeb49d40] (000+014/796) Accurately ripped
08 [ed72c386|9a6f6ac6] (000+014/784) Accurately ripped
Offsetted by -53:
01 [828116a3] (016/790) Accurately ripped
02 [5eefc29c] (016/798) Accurately ripped
03 [d7d40c30] (014/796) Accurately ripped
04 [835c81a5] (015/794) Accurately ripped
05 [6456a99b] (013/790) Accurately ripped
06 [3b757c34] (015/791) Accurately ripped
07 [38daca0e] (015/796) Accurately ripped
08 [d6f0771f] (014/784) Accurately ripped
Offsetted by 664:
01 [0cbdd74e] (200/790) Accurately ripped
02 [6fd180f7] (200/798) Accurately ripped
03 f3e84c9 (200/796) Accurately ripped
04 [fa970866] (200/794) Accurately ripped
05 [ab4b6261] (200/790) Accurately ripped
06 [d1e8be43] (200/791) Accurately ripped
07 [0b94710b] (200/796) Accurately ripped
08 [4d11f30c] (200/784) Accurately ripped
Offsetted by 1333:
01 [218a57a9] (200/790) Accurately ripped
02 [3014c650] (200/798) Accurately ripped
03 [076fdb2b] (200/796) Accurately ripped
04 [6eaec028] (200/794) Accurately ripped
05 [ecc68edd] (200/790) Accurately ripped
06 0489e39 (200/791) Accurately ripped
07 [2d9df03c] (200/796) Accurately ripped
08 [93423607] (200/784) Accurately ripped
Offsetted by -1424:
01 [982ae9b6] (002/790) Accurately ripped
02 [93afb706] (002/798) Accurately ripped
03 [dbe5afa2] (002/796) Accurately ripped
04 [d05174f7] (002/794) Accurately ripped
05 [6a999d34] (002/790) Accurately ripped
06 [31950ee9] (002/791) Accurately ripped
07 [6c914837] (002/796) Accurately ripped
08 c9ba9f3 (000/784) No match (V2 was not tested)
Offsetted by 424:
01 [c18c95be] (000/790) No match (V2 was not tested)
02 [810d2b38] (000/798) No match (V2 was not tested)
03 [8a5830f4] (000/796) No match (V2 was not tested)
04 [07b2097a] (000/794) No match (V2 was not tested)
05 [8e239790] (000/790) No match (V2 was not tested)
06 [00c4efb3] (000/791) No match (V2 was not tested)
07 [396eb581] (000/796) No match (V2 was not tested)
08 [03a889dc] (000/784) No match (V2 was not tested)
Offsetted by 593:
01 [f9b2782d] (000/790) No match (V2 was not tested)
02 834ac26 (000/798) No match (V2 was not tested)
03 86c72ec (000/796) No match (V2 was not tested)
04 4a9f91c (000/794) No match (V2 was not tested)
05 d365407 (000/790) No match (V2 was not tested)
06 [f82b5954] (000/791) No match (V2 was not tested)
07 c043b75 (000/796) No match (V2 was not tested)
08 [19af6558] (000/784) No match (V2 was not tested)
Offsetted by 639:
01 [34e8b5cf] (000/790) No match
02 [c39ee892] (000/798) No match (V2 was not tested)
03 [5c00cbff] (000/796) No match (V2 was not tested)
04 [edd5ad90] (000/794) No match (V2 was not tested)
05 [fdbec75f] (000/790) No match (V2 was not tested)
06 08cc6f9 (000/791) No match (V2 was not tested)
07 [ed2d45f1] (000/796) No match
08 [0f696f0d] (000/784) No match
Offsetted by 670:
01 b6bdf58 (000/790) No match
02 [d432b5de] (000/798) No match
03 [043b3d5c] (000/796) No match
04 [9231e001] (000/794) No match
05 [79e0d840] (000/790) No match
06 [08833845] (002/791) Accurately ripped
07 [864e0484] (000/796) No match
08 [9d131ecc] (000/784) No match
Offsetted by 1327:
01 [72dc4f9f] (000/790) No match (V2 was not tested)
02 [d5818a4e] (000/798) No match (V2 was not tested)
03 [ae21417d] (000/796) No match (V2 was not tested)
04 [633b669a] (000/794) No match (V2 was not tested)
05 [e825a945] (000/790) No match (V2 was not tested)
06 [e07d0ca2] (000/791) No match (V2 was not tested)
07 [cfc35c8f] (000/796) No match (V2 was not tested)
08 [27bae013] (000/784) No match (V2 was not tested)
Offsetted by 1339:
01 [d0385fb3] (000/790) No match (V2 was not tested)
02 [3ea470d9] (000/798) No match (V2 was not tested)
03 [5acbcc4e] (002/796) Accurately ripped
04 [771be4ad] (002/794) Accurately ripped
05 [22fda204] (002/790) Accurately ripped
06 [74f72ecc] (002/791) Accurately ripped
07 [0867b85f] (000/796) No match (V2 was not tested)
08 [c7455b4a] (002/784) Accurately ripped

Track Peak [ CRC32 ] [W/O NULL] [ LOG ]
-- 99,9 [7B45E35D] [584D39CF]
01 99,9 89C99BE [538016D3] CRC32
02 99,9 [4027BA3A] [A71D45AC] CRC32
03 99,9 [1EE3AD0F] [D8EBCAE7] CRC32
04 99,9 [D3F95F50] [AE42BFCE] CRC32
05 99,9 [6570D4E8] [779806F0] CRC32
06 99,9 [A688DABB] [DB12F37D] CRC32
07 88,3 [7B95E2C1] [A3212177] CRC32
08 99,9 [42566209] [8D786BD8] CRC32

=

http://i57.fastpic.ru/big/2015/0128/68/0eccc276f5997e5a64ee90ebdeae0168.jpg

CD02: Dream Theater - Awake (1994)
EAC | Flac(Image) + Cue + Log & MP3 CBR 320Kbps
Warner Music, 1686175642-2 | ~ 568 or 187 Mb | Scans Included
Progressive Rock / Progressive Metal

"Dream Theater's third studio release, Awake, marks a definite change in the band's tone. From the moment the guitars enter on "6:00," the first track, a darker sound is immediately evident, and it continues through the entire 75 minutes of the disc. The complex song structures, marked by arrangements that would give many good players fits, are very impressive. Drummer Mike Portnoy and guitarist John Petrucci, in particular, reach new heights with their instruments, but keyboardist Kevin Moore and bassist John Myung hold up quite well, adding to the prog metal sound with their own contributions. There are several good tracks here, but the best are the crunch-heavy "Lie," the 11-minute "Scarred," the thought-provoking "Caught in a Web," and the deeply personal, moving "Space-Dye Vest." This disc also marks keyboardist Moore's last recording with the band; he left not long after to pursue other musical directions. The heavy guitar sound may turn some off, but Dream Theater's musical ability can't be denied.


by Phil Carter, AMG
"

Tracklist:

01. 6:00 (5:32)
02. Caught In A Web (5:28)
03. Innocence Faded (5:42)
04. Erotomania (6:44)
05. Voices (9:54)
06. The Silent Man (3:48)
07. The Mirror (6:45)
08. Lie (6:34)
09. Lifting Shadows Off A Dream (6:05)
10. Scarred (10:59)
11. Space-Dye Vest (7:29)

Exact Audio Copy V1.0 beta 3 from 29. August 2011

EAC extraction logfile from 4. November 2014, 22:32

Dream Theater / The Studio Albums - CD02 - Awake

Used drive : Optiarc DVD RW AD-7241S Adapter: 5 ID: 1

Read mode : Secure
Utilize accurate stream : Yes
Defeat audio cache : Yes
Make use of C2 pointers : No

Read offset correction : 48
Overread into Lead-In and Lead-Out : No
Fill up missing offset samples with silence : Yes
Delete leading and trailing silent blocks : No
Null samples used in CRC calculations : Yes
Used interface : Native Win32 interface for Win NT & 2000
Gap handling : Appended to previous track

Used output format : User Defined Encoder
Selected bitrate : 1024 kBit/s
Quality : High
Add ID3 tag : No
Command line compressor : C:\Program Files\EAC1.3\Flac\flac.exe
Additional command line options : -8 -V -T "ARTIST=%artist%" -T "TITLE=%title%" -T "ALBUM=%albumtitle%" -T "DATE=%year%" -T "TRACKNUMBER=%tracknr%" -T "TOTALTRACKS=%numtracks%" -T "GENRE=%genre%" -T "ALBUMARTIST=%albumartist%" -T "ALBUM ARTIST=%albumartist%" -T "COMMENT=EAC Secure Mode, Test & Copy, AccurateRip, FLAC -8" %source%

TOC of the extracted CD Track | Start | Length | Start sector | End sector
-----------
1 | 0:00.00 | 5:31.40 | 0 | 24864
2 | 5:31.40 | 5:28.23 | 24865 | 49487
3 | 10:59.63 | 5:42.37 | 49488 | 75174
4 | 16:42.25 | 6:44.20 | 75175 | 105494
5 | 23:26.45 | 9:53.60 | 105495 | 150029
6 | 33:20.30 | 3:47.70 | 150030 | 167124
7 | 37:08.25 | 6:45.25 | 167125 | 197524
8 | 43:53.50 | 6:33.65 | 197525 | 227064
9 | 50:27.40 | 6:05.10 | 227065 | 254449
10 | 56:32.50 | 10:59.10 | 254450 | 303884
11 | 67:31.60 | 7:29.15 | 303885 | 337574

Track 1 Filename C:\EACcd\01 - 6-00.wav Pre-gap length 0:00:02.00 Peak level 100.0 %
Extraction speed 2.6 X
Track quality 100.0 %
Test CRC E2756BB0
Copy CRC E2756BB0
Accurately ripped (confidence 3) [D5B14AFB] (AR v2)
Copy OK

Track 2 Filename C:\EACcd\02 - Caught In A Web.wav Peak level 100.0 %
Extraction speed 2.7 X
Track quality 99.9 %
Test CRC 4393E718
Copy CRC 4393E718
Accurately ripped (confidence 3) [980D4DBA] (AR v2)
Copy OK

Track 3 Filename C:\EACcd\03 - Innocence Faded.wav Peak level 100.0 %
Extraction speed 3.2 X
Track quality 100.0 %
Test CRC AA071115
Copy CRC AA071115
Accurately ripped (confidence 3) [981CBFF0] (AR v2)
Copy OK

Track 4 Filename C:\EACcd\04 - Erotomania.wav Peak level 100.0 %
Extraction speed 3.7 X
Track quality 100.0 %
Test CRC E28E8CE7
Copy CRC E28E8CE7
Accurately ripped (confidence 3) [ED6077A9] (AR v2)
Copy OK

Track 5 Filename C:\EACcd\05 - Voices.wav Peak level 100.0 %
Extraction speed 4.1 X
Track quality 100.0 %
Test CRC 23D45546
Copy CRC 23D45546
Accurately ripped (confidence 3) B00F71F (AR v2)
Copy OK

Track 6 Filename C:\EACcd\06 - The Silent Man.wav Peak level 100.0 %
Extraction speed 4.0 X
Track quality 100.0 %
Test CRC BD68A69E
Copy CRC BD68A69E
Accurately ripped (confidence 3) [8F42DC54] (AR v2)
Copy OK

Track 7 Filename C:\EACcd\07 - The Mirror.wav Pre-gap length 0:00:01.17 Peak level 100.0 %
Extraction speed 4.5 X
Track quality 100.0 %
Test CRC 3FD361EF
Copy CRC 3FD361EF
Accurately ripped (confidence 3) [6D769C59] (AR v2)
Copy OK

Track 8 Filename C:\EACcd\08 - Lie.wav Peak level 100.0 %
Extraction speed 4.7 X
Track quality 100.0 %
Test CRC 356CE838
Copy CRC 356CE838
Accurately ripped (confidence 3) [32178E44] (AR v2)
Copy OK

Track 9 Filename C:\EACcd\09 - Lifting Shadows Off A Dream.wav Peak level 100.0 %
Extraction speed 4.9 X
Track quality 100.0 %
Test CRC 9A045287
Copy CRC 9A045287
Accurately ripped (confidence 3) [72CE308D] (AR v2)
Copy OK

Track 10 Filename C:\EACcd\10 - Scarred.wav Peak level 100.0 %
Extraction speed 5.5 X
Track quality 100.0 %
Test CRC 74E49E94
Copy CRC 74E49E94
Accurately ripped (confidence 3) [FB8729E1] (AR v2)
Copy OK

Track 11 Filename C:\EACcd\11 - Space-Dye Vest.wav Pre-gap length 0:00:01.02 Peak level 100.0 %
Extraction speed 5.3 X
Track quality 99.9 %
Test CRC 39CD496C
Copy CRC 39CD496C
Accurately ripped (confidence 3) [FF03A82A] (AR v2)
Copy OK

All tracks accurately ripped

No errors occurred

End of status report

foobar2000 1.2.9 / Dynamic Range Meter 1.1.1
log date: 2015-01-24 17:08:36

--
Analyzed: Dream Theater / The Studio Albums - CD02 - Awake
--

DR Peak RMS Duration Track
--
DR8 0.00 dB -9.39 dB 5:32 01-6:00
DR9 0.00 dB -9.72 dB 5:28 02-Caught In A Web
DR8 0.00 dB -9.55 dB 5:42 03-Innocence Faded
DR9 0.00 dB -10.63 dB 6:44 04-Erotomania
DR8 0.00 dB -10.39 dB 9:54 05-Voices
DR12 0.00 dB -14.71 dB 3:48 06-The Silent Man
DR9 0.00 dB -9.90 dB 6:45 07-The Mirror
DR9 0.00 dB -9.40 dB 6:34 08-Lie
DR9 0.00 dB -11.35 dB 6:05 09-Lifting Shadows Off A Dream
DR8 0.00 dB -9.86 dB 10:59 10-Scarred
DR10 0.00 dB -12.12 dB 7:29 11-Space-Dye Vest
--

Number of tracks: 11
Official DR value: DR9

Samplerate: 44100 Hz
Channels: 2
Bits per sample: 16
Bitrate: 1010 kbps
Codec: FLAC

[CUETools log; Date: 24.01.2015 17:08:29; Version: 2.1.4]
[CTDB TOCID: 88rxkLFRGfoFVRDKOopb4Lgcyjg-] found.
Track | CTDB Status
1 | (340/345) Accurately ripped
2 | (339/345) Accurately ripped
3 | (341/345) Accurately ripped
4 | (340/345) Accurately ripped
5 | (340/345) Accurately ripped
6 | (340/345) Accurately ripped
7 | (338/345) Accurately ripped
8 | (341/345) Accurately ripped
9 | (338/345) Accurately ripped
10 | (332/345) Accurately ripped
11 | (335/345) Accurately ripped
[AccurateRip ID: 001ce146-00fe2fa9-7211950b] found.
Track [ CRC | V2 ] Status
01 [182d3b1d|d5b14afb] (000+013/664) Accurately ripped
02 [58168a8e|980d4dba] (000+013/663) Accurately ripped
03 [8765d73c|981cbff0] (000+013/661) Accurately ripped
04 [ca20a247|ed6077a9] (000+013/663) Accurately ripped
05 [72ad25ec|bb00f71f] (000+013/660) Accurately ripped
06 [1a7565e6|8f42dc54] (000+013/661) Accurately ripped
07 [8f0438d6|6d769c59] (000+013/658) Accurately ripped
08 [640f5b75|32178e44] (000+013/662) Accurately ripped
09 [ca9c3d7d|72ce308d] (000+013/659) Accurately ripped
10 [0cd890d0|fb8729e1] (000+013/661) Accurately ripped
11 [8064c277|ff03a82a] (000+013/659) Accurately ripped
Offsetted by -6:
01 [fdd9ed88] (004/664) Accurately ripped
02 [49f83e2b] (004/663) Accurately ripped
03 [c90e9390] (004/661) Accurately ripped
04 7b0a20b (004/663) Accurately ripped
05 [1eaa4d86] (004/660) Accurately ripped
06 [20110aff] (004/661) Accurately ripped
07 [aca7bc9b] (004/658) Accurately ripped
08 [93fce870] (004/662) Accurately ripped
09 [30add166] (004/659) Accurately ripped
10 [1e232ec6] (004/661) Accurately ripped
11 [304781e0] (004/659) Accurately ripped
Offsetted by 562:
01 [78bf5237] (005/664) Accurately ripped
02 [345cfbcc] (005/663) Accurately ripped
03 0514e0f (005/661) Accurately ripped
04 [1c2247f6] (005/663) Accurately ripped
05 [60ae4d34] (005/660) Accurately ripped
06 [4a6031ad] (005/661) Accurately ripped
07 [896bb67b] (005/658) Accurately ripped
08 [5686729a] (005/662) Accurately ripped
09 [913041fe] (005/659) Accurately ripped
10 [02b33b7a] (005/661) Accurately ripped
11 1f3577e (005/659) Accurately ripped
Offsetted by 641:
01 [60896e54] (004/664) Accurately ripped
02 [e79fc109] (004/663) Accurately ripped
03 23be98f (004/661) Accurately ripped
04 [919715b1] (004/663) Accurately ripped
05 [ffc71b03] (004/660) Accurately ripped
06 [16884cd1] (004/661) Accurately ripped
07 [9459bc00] (004/658) Accurately ripped
08 [347630e2] (004/662) Accurately ripped
09 [85e35d31] (004/659) Accurately ripped
10 [00d5bc3b] (004/661) Accurately ripped
11 [a34d4476] (004/659) Accurately ripped
Offsetted by 658:
01 [6acd4d79] (114/664) Accurately ripped
02 5afd035 (114/663) Accurately ripped
03 [448d0cfd] (114/661) Accurately ripped
04 [497ea3e5] (114/663) Accurately ripped
05 [61a8d8bd] (113/660) Accurately ripped
06 [62687348] (113/661) Accurately ripped
07 [3234b845] (112/658) Accurately ripped
08 [3283e071] (113/662) Accurately ripped
09 [ace5db1d] (113/659) Accurately ripped
10 [873c6ebc] (114/661) Accurately ripped
11 [0fc07b1b] (110/659) Accurately ripped
Offsetted by 1224:
01 [fc33b5db] (005/664) Accurately ripped
02 [5a16fd17] (005/663) Accurately ripped
03 [9f8e9362] (004/661) Accurately ripped
04 [9da9e2fb] (005/663) Accurately ripped
05 [92f7a95f] (005/660) Accurately ripped
06 [e3991ea8] (005/661) Accurately ripped
07 [d053312b] (005/658) Accurately ripped
08 [4ef8cc18] (005/662) Accurately ripped
09 [2136ec8e] (005/659) Accurately ripped
10 [57d2721a] (005/661) Accurately ripped
11 [74a4140b] (004/659) Accurately ripped
Offsetted by 1251:
01 [598331d5] (002/664) Accurately ripped
02 [5b2f5228] (002/663) Accurately ripped
03 [6987b738] (002/661) Accurately ripped
04 [96853e8e] (002/663) Accurately ripped
05 [22ea8c9e] (002/660) Accurately ripped
06 [2cc768ce] (002/661) Accurately ripped
07 [5e7a43a8] (002/658) Accurately ripped
08 [755e3732] (002/662) Accurately ripped
09 [8120d7d8] (002/659) Accurately ripped
10 [47f42550] (002/661) Accurately ripped
11 [a09bb2de] (002/659) Accurately ripped
Offsetted by 1256:
01 [0a90029e] (002/664) Accurately ripped
02 [a132dfc8] (002/663) Accurately ripped
03 [e2c207c9] (002/661) Accurately ripped
04 [2e33b37c] (002/663) Accurately ripped
05 [494ad7ed] (002/660) Accurately ripped
06 [4bef379c] (002/661) Accurately ripped
07 42e05dd (002/658) Accurately ripped
08 [5f59ed1e] (002/662) Accurately ripped
09 [c9a1de33] (002/659) Accurately ripped
10 [f2e1e92c] (002/661) Accurately ripped
11 [d107db0c] (002/659) Accurately ripped
Offsetted by 1322:
01 [95c6060d] (200/664) Accurately ripped
02 [cf375bac] (200/663) Accurately ripped
03 [5625d377] (200/661) Accurately ripped
04 [0bec9410] (200/663) Accurately ripped
05 [381403d1] (200/660) Accurately ripped
06 [9a960309] (200/661) Accurately ripped
07 [fed1b242] (200/658) Accurately ripped
08 [6f9080e2] (200/662) Accurately ripped
09 [29ebbca7] (200/659) Accurately ripped
10 [e24140ae] (200/661) Accurately ripped
11 [e4fe5a03] (200/659) Accurately ripped
Offsetted by 655:
01 [db285329] (000/664) No match
02 [f47d675c] (000/663) No match
03 [f5118716] (000/661) No match
04 [286382f2] (000/663) No match
05 [1bac0314] (000/660) No match (V2 was not tested)
06 90e806e (000/661) No match
07 [38c6bf3e] (000/658) No match
08 [38b71899] (000/662) No match (V2 was not tested)
09 [13e8200d] (000/659) No match (V2 was not tested)
10 [e8e83b7e] (000/661) No match (V2 was not tested)
11 [2687b254] (000/659) No match (V2 was not tested)
Offsetted by 1304:
01 [eebc5915] (002/664) Accurately ripped
02 [5f6425f4] (000/663) No match
03 0ceb6db (000/661) No match
04 [78163211] (000/663) No match
05 [fe55a564] (000/660) No match
06 [17fbb7a3] (000/661) No match
07 [4303dc2c] (000/658) No match
08 [129b3768] (000/662) No match
09 [78962c3e] (000/659) No match
10 [079c77a9] (000/661) No match
11 [1898d7ee] (000/659) No match

Track Peak [ CRC32 ] [W/O NULL] [ LOG ]
-- 99,9 [D715829E] [340236D7]
01 99,9 [E2756BB0] 70CD5E2 CRC32
02 99,9 [4393E718] [F42B97E7] CRC32
03 99,9 [AA071115] [31945312] CRC32
04 99,9 [E28E8CE7] 76AD79A CRC32
05 99,9 [23D45546] [DDCE6ED4] CRC32
06 99,9 D68A69E [CCC6B13C] CRC32
07 99,9 [3FD361EF] [850371AD] CRC32
08 99,9 [356CE838] [5E7F56F7] CRC32
09 99,9 [9A045287] [CB4F657B] CRC32
10 99,9 [74E49E94] [AFC21EB8] CRC32
11 99,9 [39CD496C] [8E28A653] CRC32

=

http://i59.fastpic.ru/big/2015/0128/5d/e2d2e84889d45e6dd78c10800ff48d5d.jpg

CD03: Dream Theater - Falling Into Infinity (1997)
EAC | Flac(Image) + Cue + Log & MP3 CBR 320Kbps
Warner Music, 1686175642-3 | ~ 592 or 194 Mb | Scans Included
Progressive Rock / Progressive Metal

"Like many other progressive bands playing difficult music, Dream Theater inevitably chose to trim down both their bombastic production and intricate songwriting for a more laid-back approach, both live and in the studio. The result, Falling Into Infinity, is something of a disappointment. Never before have the band's influences been worn so openly on their sleeves, which translates into a derivativeness that undermines much of the material on this album. Guitarist John Petrucci's solos sound like cloned Steve Vai more often than not, which stands in direct contrast to his groundbreaking work on earlier platters. James LaBrie, though gifted with a strong, bellowing voice, has a range too limited to properly convey the emotive resonances of the lyrics: he's either singing in a soft whisper on the gentler passages or yelling at the top of his lungs during heavier moments. Subtler shading is needed before he can properly be classed in the same league as Robert Plant or even Steve Perry. New keyboardist Derek Sherinian gives the best performance on Falling, establishing himself as an accomplished musician and songwriter without blindly following in his predecessor's footsteps. Unfortunately, his presence fails to turbo-charge the rest of the group, who turn in a halfhearted creative effort under the direction of new producer Kevin Shirley. Most of the songs here rely on the same device to build tension: a bold riff is repeated while the drums quicken pace and crescendo in volume beneath the rhythm. In addition, the "progressive" songs are relatively subdued compared to earlier efforts, particularly "Trial of Tears," which drags on for over 13 minutes with little hint of either songwriting ingenuity or instrumental virtuosity. "Hell's Kitchen" and the middle of "New Millennium" prove Dream Theater haven't forgotten their roots, but elsewhere they're content to trot out standard AOR clichés. This brazen attempt to woo a more mainstream audience has resulted in the band's weakest effort since their debut.


by Phil Carter, AMG
"

Tracklist:

01. New Millennium (8:21)
02. You Not Me (4:59)
03. Peruvian Skies (6:43)
04. Hollow Years (5:54)
05. Burning My Soul (5:29)
06. Hell's Kitchen (4:17)
07. Lines In The Sand (12:06)
08. Take Away My Pain (6:03)
09. Just Let Me Breathe (5:29)
10. Anna Lee (5:52)
11. Trial Of Tears (I. It's Raining/ II. Deep In Heaven/ III. The Wasteland) (13:07)

Exact Audio Copy V1.0 beta 3 from 29. August 2011

EAC extraction logfile from 5. November 2014, 23:11

Dream Theater / The Studio Albums - CD03 - Falling Into Infinity

Used drive : Optiarc DVD RW AD-7241S Adapter: 5 ID: 1

Read mode : Secure
Utilize accurate stream : Yes
Defeat audio cache : Yes
Make use of C2 pointers : No

Read offset correction : 48
Overread into Lead-In and Lead-Out : No
Fill up missing offset samples with silence : Yes
Delete leading and trailing silent blocks : No
Null samples used in CRC calculations : Yes
Used interface : Native Win32 interface for Win NT & 2000
Gap handling : Appended to previous track

Used output format : User Defined Encoder
Selected bitrate : 1024 kBit/s
Quality : High
Add ID3 tag : No
Command line compressor : C:\Program Files\EAC1.3\Flac\flac.exe
Additional command line options : -8 -V -T "ARTIST=%artist%" -T "TITLE=%title%" -T "ALBUM=%albumtitle%" -T "DATE=%year%" -T "TRACKNUMBER=%tracknr%" -T "TOTALTRACKS=%numtracks%" -T "GENRE=%genre%" -T "ALBUMARTIST=%albumartist%" -T "ALBUM ARTIST=%albumartist%" -T "COMMENT=EAC Secure Mode, Test & Copy, AccurateRip, FLAC -8" %source%

TOC of the extracted CD Track | Start | Length | Start sector | End sector
-----------
1 | 0:00.00 | 8:20.40 | 0 | 37539
2 | 8:20.40 | 4:58.65 | 37540 | 59954
3 | 13:19.30 | 6:43.02 | 59955 | 90181
4 | 20:02.32 | 5:53.43 | 90182 | 116699
5 | 25:56.00 | 5:29.27 | 116700 | 141401
6 | 31:25.27 | 4:16.48 | 141402 | 160649
7 | 35:42.00 | 12:05.52 | 160650 | 215076
8 | 47:47.52 | 6:03.13 | 215077 | 242314
9 | 53:50.65 | 5:28.55 | 242315 | 266969
10 | 59:19.45 | 5:51.60 | 266970 | 293354
11 | 65:11.30 | 13:06.72 | 293355 | 352376

Track 1 Filename C:\EACcd\01 - New Millennium.wav Pre-gap length 0:00:02.00 Peak level 100.0 %
Extraction speed 2.8 X
Track quality 100.0 %
Test CRC 5B8157F5
Copy CRC 5B8157F5
Accurately ripped (confidence 5) [AE0B4B6C] (AR v2)
Copy OK

Track 2 Filename C:\EACcd\02 - You Not Me.wav Peak level 90.1 %
Extraction speed 3.1 X
Track quality 100.0 %
Test CRC AF91C5CE
Copy CRC AF91C5CE
Accurately ripped (confidence 5) [D883B3B2] (AR v2)
Copy OK

Track 3 Filename C:\EACcd\03 - Peruvian Skies.wav Peak level 100.0 %
Extraction speed 3.2 X
Track quality 99.9 %
Test CRC DC9113A6
Copy CRC DC9113A6
Accurately ripped (confidence 5) [7881590A] (AR v2)
Copy OK

Track 4 Filename C:\EACcd\04 - Hollow Years.wav Peak level 100.0 %
Extraction speed 3.4 X
Track quality 99.9 %
Test CRC 80877180
Copy CRC 80877180
Accurately ripped (confidence 5) [4AE14E2E] (AR v2)
Copy OK

Track 5 Filename C:\EACcd\05 - Burning My Soul.wav Peak level 100.0 %
Extraction speed 3.6 X
Track quality 99.9 %
Test CRC 8549806D
Copy CRC 8549806D
Accurately ripped (confidence 5) [6245A6B7] (AR v2)
Copy OK

Track 6 Filename C:\EACcd\06 - Hell's Kitchen.wav Peak level 100.0 %
Extraction speed 3.6 X
Track quality 99.9 %
Test CRC ED226656
Copy CRC ED226656
Accurately ripped (confidence 5) [E49B7395] (AR v2)
Copy OK

Track 7 Filename C:\EACcd\07 - Lines In The Sand.wav Peak level 100.0 %
Extraction speed 4.8 X
Track quality 100.0 %
Test CRC 9E28D9DF
Copy CRC 9E28D9DF
Accurately ripped (confidence 5) [D078E1FC] (AR v2)
Copy OK

Track 8 Filename C:\EACcd\08 - Take Away My Pain.wav Peak level 100.0 %
Extraction speed 4.5 X
Track quality 99.9 %
Test CRC FE6C8C56
Copy CRC FE6C8C56
Accurately ripped (confidence 5) [0CAA87FB] (AR v2)
Copy OK

Track 9 Filename C:\EACcd\09 - Just Let Me Breathe.wav Peak level 100.0 %
Extraction speed 5.0 X
Track quality 100.0 %
Test CRC BF227964
Copy CRC BF227964
Accurately ripped (confidence 5) [C632EBD0] (AR v2)
Copy OK

Track 10 Filename C:\EACcd\10 - Anna Lee.wav Peak level 100.0 %
Extraction speed 5.3 X
Track quality 100.0 %
Test CRC 565455BB
Copy CRC 565455BB
Accurately ripped (confidence 5) [95C57C40] (AR v2)
Copy OK

Track 11 Filename C:\EACcd\11 - Trial Of Tears (I. It's Raining, II. Deep In Heaven, III. The Wasteland).wav Peak level 100.0 %
Extraction speed 5.9 X
Track quality 100.0 %
Test CRC 3742D30F
Copy CRC 3742D30F
Accurately ripped (confidence 5) [0F6A5EF1] (AR v2)
Copy OK

All tracks accurately ripped

No errors occurred

End of status report

foobar2000 1.2.9 / Dynamic Range Meter 1.1.1
log date: 2015-01-24 17:09:04

--
Analyzed: Dream Theater / The Studio Albums - CD03 - Falling Into Infinity
--

DR Peak RMS Duration Track
--
DR6 0.00 dB -7.79 dB 8:21 01-New Millennium
DR6 -0.90 dB -7.29 dB 4:59 02-You Not Me
DR7 0.00 dB -8.55 dB 6:43 03-Peruvian Skies
DR7 0.00 dB -8.66 dB 5:54 04-Hollow Years
DR5 0.00 dB -6.18 dB 5:29 05-Burning My Soul
DR6 0.00 dB -7.57 dB 4:17 06-Hell's Kitchen
DR6 0.00 dB -7.72 dB 12:06 07-Lines In The Sand
DR6 0.00 dB -9.26 dB 6:03 08-Take Away My Pain
DR6 0.00 dB -6.96 dB 5:29 09-Just Let Me Breathe
DR7 0.00 dB -9.65 dB 5:52 10-Anna Lee
DR7 0.00 dB -9.05 dB 13:07 11-Trial Of Tears (I. It's Raining/ II. Deep In Heaven/ III. The Wasteland)
--

Number of tracks: 11
Official DR value: DR6

Samplerate: 44100 Hz
Channels: 2
Bits per sample: 16
Bitrate: 1011 kbps
Codec: FLAC

[CUETools log; Date: 24.01.2015 17:09:03; Version: 2.1.4]
[CTDB TOCID: LpJ_3EAaJnirxjDdtb4BtwPPjEk-] found.
Track | CTDB Status
1 | (240/243) Accurately ripped
2 | (242/243) Accurately ripped
3 | (242/243) Accurately ripped
4 | (243/243) Accurately ripped
5 | (243/243) Accurately ripped
6 | (243/243) Accurately ripped
7 | (238/243) Accurately ripped, or (2/243) differs in 24 samples @07:03:17,11:25:30
8 | (242/243) Accurately ripped
9 | (242/243) Accurately ripped
10 | (243/243) Accurately ripped
11 | (236/243) Accurately ripped
[AccurateRip ID: 001e28cb-01066e7c-91125a0b] found.
Track [ CRC | V2 ] Status
01 [d42555c0|ae0b4b6c] (000+013/493) Accurately ripped
02 [d64ed783|d883b3b2] (000+013/493) Accurately ripped
03 [29294c09|7881590a] (000+013/494) Accurately ripped
04 [99913b63|4ae14e2e] (000+013/494) Accurately ripped
05 [44aadf54|6245a6b7] (000+013/495) Accurately ripped
06 [93045488|e49b7395] (000+013/494) Accurately ripped
07 [dcceffe6|d078e1fc] (000+013/498) Accurately ripped
08 [14f2db73|0caa87fb] (002+013/498) Accurately ripped
09 [f7663e34|c632ebd0] (002+013/497) Accurately ripped
10 [ff923245|95c57c40] (002+013/496) Accurately ripped
11 [2bb55a2b|0f6a5ef1] (000+013/481) Accurately ripped
Offsetted by -723:
01 [5d9b3c71] (004/493) Accurately ripped
02 [1ad3882b] (004/493) Accurately ripped
03 [c13dff11] (004/494) Accurately ripped
04 [94ad9b05] (004/494) Accurately ripped
05 [910ebce5] (004/495) Accurately ripped
06 0452f35 (004/494) Accurately ripped
07 [90757a42] (004/498) Accurately ripped
08 [7fd3d2d4] (004/498) Accurately ripped
09 [ca67e139] (004/497) Accurately ripped
10 [76c3acf1] (004/496) Accurately ripped
11 [a5fbfbb4] (003/481) Accurately ripped
Offsetted by -670:
01 [378eb2ca] (017/493) Accurately ripped
02 [ff247313] (017/493) Accurately ripped
03 [d430cb59] (017/494) Accurately ripped
04 [45f3b752] (017/494) Accurately ripped
05 [258dd108] (017/495) Accurately ripped
06 [c4842a75] (017/494) Accurately ripped
07 [0760a29e] (017/498) Accurately ripped
08 [a547cab1] (017/498) Accurately ripped
09 [73319c7a] (017/497) Accurately ripped
10 [6a222d42] (017/496) Accurately ripped
11 [02bef0f8] (018/481) Accurately ripped
Offsetted by -665:
01 [dd064533] (003/493) Accurately ripped
02 [7549107b] (003/493) Accurately ripped
03 [1999d021] (003/494) Accurately ripped
04 [f0cd7a5b] (003/494) Accurately ripped
05 [413a5722] (003/495) Accurately ripped
06 a392659 (003/494) Accurately ripped
07 b60323b (003/498) Accurately ripped
08 [71a232b4] (003/498) Accurately ripped
09 [9afd2c7d] (003/497) Accurately ripped
10 [7c1f6afa] (003/496) Accurately ripped
11 [8cf35551] (003/481) Accurately ripped
Offsetted by -72:
01 [856b7fd8] (002/493) Accurately ripped
02 [310c6343] (002/493) Accurately ripped
03 [74daa0c9] (002/494) Accurately ripped
04 [7463d8d2] (002/494) Accurately ripped
05 [46816a07] (002/495) Accurately ripped
06 [f3914376] (002/494) Accurately ripped
07 [3d835ad6] (002/498) Accurately ripped
08 [31f12add] (002/498) Accurately ripped
09 [15f4990a] (002/497) Accurately ripped
10 [c6503137] (002/496) Accurately ripped
11 [32b0d809] (002/481) Accurately ripped
Offsetted by -6:
01 [0d95d942] (200/493) Accurately ripped
02 [48894dd3] (200/493) Accurately ripped
03 [6f781319] (200/494) Accurately ripped
04 [d7ed1229] (200/494) Accurately ripped
05 [586ed562] (200/495) Accurately ripped
06 [55d30fd6] (200/494) Accurately ripped
07 [2dd1a14c] (200/498) Accurately ripped
08 [8450054d] (200/498) Accurately ripped
09 [d04ef09e] (200/497) Accurately ripped
10 [cdfa6be0] (200/496) Accurately ripped
11 bab4cea (200/481) Accurately ripped
Offsetted by -711:
01 [eaba356d] (000/493) No match (V2 was not tested)
02 [365e9b8b] (000/493) No match (V2 was not tested)
03 [34a070f1] (000/494) No match (V2 was not tested)
04 [6cd2984d] (000/494) No match (V2 was not tested)
05 [336af7c0] (000/495) No match (V2 was not tested)
06 [7dc1a856] (000/494) No match (V2 was not tested)
07 [0c38f84e] (000/498) No match (V2 was not tested)
08 [4626ee53] (002/498) Accurately ripped
09 [2b076aca] (000/497) No match (V2 was not tested)
10 [28e6a8c7] (000/496) No match (V2 was not tested)
11 [d1037b56] (000/481) No match (V2 was not tested)
Offsetted by -687:
01 [04f82765] (002/493) Accurately ripped
02 [6d74c24b] (002/493) Accurately ripped
03 [1b6554b1] (002/494) Accurately ripped
04 [23853453] (002/494) Accurately ripped
05 [66cb598f] (002/495) Accurately ripped
06 [234e5d54] (002/494) Accurately ripped
07 [90cc9243] (002/498) Accurately ripped
08 [76070e35] (002/498) Accurately ripped
09 [eb8a8070] (002/497) Accurately ripped
10 [cb47dc67] (002/496) Accurately ripped
11 [2c618f36] (000/481) No match (V2 was not tested)
Offsetted by -36:
01 [2cc86acc] (000/493) No match (V2 was not tested)
02 [83ad9d63] (000/493) No match (V2 was not tested)
03 [cf01f669] (000/494) No match (V2 was not tested)
04 [e3fe00b0] (000/494) No match (V2 was not tested)
05 [de4ca2a1] (000/495) No match (V2 was not tested)
06 [8cb97ef3] (000/494) No match (V2 was not tested)
07 e821e89 (000/498) No match (V2 was not tested)
08 [3bd65091] (000/498) No match (V2 was not tested)
09 [0af36be6] (000/497) No match (V2 was not tested)
10 [2d34b16c] (000/496) No match (V2 was not tested)
11 [f4de357c] (000/481) No match (V2 was not tested)
Offsetted by -24:
01 9e763c8 (000/493) No match (V2 was not tested)
02 [9f38b0c3] (000/493) No match (V2 was not tested)
03 [42646849] (000/494) No match (V2 was not tested)
04 [206a1027] (000/494) No match (V2 was not tested)
05 [e029c655] (000/495) No match (V2 was not tested)
06 [0567e2fd] (000/494) No match (V2 was not tested)
07 [db48588c] (000/498) No match (V2 was not tested)
08 [64cbac71] (000/498) No match (V2 was not tested)
09 [5a790776] (000/497) No match (V2 was not tested)
10 [d811747a] (000/496) No match (V2 was not tested)
11 [c97ade16] (000/481) No match (V2 was not tested)
Offsetted by -12:
01 [47065cc4] (000/493) No match (V2 was not tested)
02 ac3c423 (000/493) No match (V2 was not tested)
03 5c6da29 (000/494) No match (V2 was not tested)
04 [e0008e53] (000/494) No match (V2 was not tested)
05 [1c12e5ea] (000/495) No match (V2 was not tested)
06 [3eb2a8d1] (000/494) No match (V2 was not tested)
07 [ec6555c7] (000/498) No match (V2 was not tested)
08 [54126ab2] (000/498) No match (V2 was not tested)
09 [a931a2ed] (000/497) No match (V2 was not tested)
10 [d86dc170] (000/496) No match (V2 was not tested)
11 [33eae8b0] (000/481) No match (V2 was not tested)

Track Peak [ CRC32 ] [W/O NULL] [ LOG ]
-- 99,9 [CC9C3ACF] [8ED7D7B7]
01 99,9 [5B8157F5] [F906F670] CRC32
02 90,1 [AF91C5CE] [EE855A9B] CRC32
03 99,9 [DC9113A6] [585D0975] CRC32
04 99,9 [80877180] [C4E86C56] CRC32
05 99,9 [8549806D] [2E006523] CRC32
06 99,9 [ED226656] [11858C2E] CRC32
07 99,9 [9E28D9DF] [5D697D0F] CRC32
08 99,9 [FE6C8C56] [51C61E25] CRC32
09 99,9 F227964 [5DD3EC6E] CRC32
10 99,9 [565455BB] [A80CD0C6] CRC32
11 99,9 [3742D30F] [AAAC7244] CRC32

=

http://i67.fastpic.ru/big/2015/0128/b0/1f6b4ff900b5fd399d6a03146ea87cb0.jpg

CD04: Dream Theater - Metropolis Pt.2: Scenes From A Memory (1999)
EAC | Flac(Image) + Cue + Log & MP3 CBR 320Kbps
Warner Music, 1686175642-4 | ~ 556 or 191 Mb | Scans Included
Progressive Rock / Progressive Metal

"Dream Theater is almost aggressively out of fashion in 1999. Few bands subscribe to their dense blend of progressive rock and post-Halen metal, and those that do usually don't have major-label contracts, the way Dream Theater does. There was a point where they tried to straighten out their sound somewhat, as they flirted with straight-ahead, laid-back metal on 1997's Falling into Infinity, but with its 1999 studio sequel, Scenes from a Memory, Dream Theater delves straight into old-fashioned prog rock. Scenes from a Memory is an unabashed concept album, told in two acts, about the 1928 murder of a young woman and how a modern man is haunted by the crime. A convoluted, difficult tale is told in a convoluted, difficult fashion, with no less than four tracks clocking in at well over ten minutes and three others ranging from 6:30 to 8:50. Clearly, this is intended as some sort of masterwork, and what's remarkable is that Dream Theater comes close to creating a masterwork with Scenes from a Memory. The album plays more like a suite than a collection of individual songs. At times, that means the album can bog down slightly in its own flights of fancy and long instrumental sections, but concentrated listens reveal the intricacies of the song structures and the musicianship. Occasionally, it can seem as if James Labrie oversings, but that's a minor point -- the overall end result of the album is quite impressive indeed.


by Stephen Thomas Erlewine , AMG
"

Tracklist:

01. Scene One: Regression (2:07)
02. Scene Two: I. Overture 1928 (3:38)
03. Scene Two: II. Strange Deja Vu (5:12)
04. Scene Three: I. Through My Words (1:02)
05. Scene Three: II. Fatal Tragedy (6:49)
06. Scene Four: Beyond This Life (11:23)
07. Scene Five: Through Her Eyes (5:29)
08. Scene Six: Home (12:53)
09. Scene Seven: I. The Dance of Eternity (6:14)
10. Scene Seven: II. One Last Time (3:47)
11. Scene Eight: The Spirit Carries On (6:38)
12. Scene Nine: Finally Free (12:00)

Exact Audio Copy V1.0 beta 3 from 29. August 2011

EAC extraction logfile from 6. November 2014, 20:48

Dream Theater / The Studio Albums - CD04 - Metropolis Pt.2: Scenes From A Memory

Used drive : Optiarc DVD RW AD-7241S Adapter: 5 ID: 1

Read mode : Secure
Utilize accurate stream : Yes
Defeat audio cache : Yes
Make use of C2 pointers : No

Read offset correction : 48
Overread into Lead-In and Lead-Out : No
Fill up missing offset samples with silence : Yes
Delete leading and trailing silent blocks : No
Null samples used in CRC calculations : Yes
Used interface : Native Win32 interface for Win NT & 2000
Gap handling : Appended to previous track

Used output format : User Defined Encoder
Selected bitrate : 1024 kBit/s
Quality : High
Add ID3 tag : No
Command line compressor : C:\Program Files\EAC1.3\Flac\flac.exe
Additional command line options : -8 -V -T "ARTIST=%artist%" -T "TITLE=%title%" -T "ALBUM=%albumtitle%" -T "DATE=%year%" -T "TRACKNUMBER=%tracknr%" -T "TOTALTRACKS=%numtracks%" -T "GENRE=%genre%" -T "ALBUMARTIST=%albumartist%" -T "ALBUM ARTIST=%albumartist%" -T "COMMENT=EAC Secure Mode, Test & Copy, AccurateRip, FLAC -8" %source%

TOC of the extracted CD Track | Start | Length | Start sector | End sector
-----------
1 | 0:00.00 | 2:06.50 | 0 | 9499
2 | 2:06.50 | 3:37.67 | 9500 | 25841
3 | 5:44.42 | 5:12.23 | 25842 | 49264
4 | 10:56.65 | 1:02.12 | 49265 | 53926
5 | 11:59.02 | 6:49.30 | 53927 | 84631
6 | 18:48.32 | 11:22.53 | 84632 | 135834
7 | 30:11.10 | 5:29.20 | 135835 | 160529
8 | 35:40.30 | 12:53.27 | 160530 | 218531
9 | 48:33.57 | 6:13.53 | 218532 | 246559
10 | 54:47.35 | 3:46.55 | 246560 | 263564
11 | 58:34.15 | 6:38.20 | 263565 | 293434
12 | 65:12.35 | 11:59.52 | 293435 | 347411

Track 1 Filename C:\EACcd\01 - Scene One- Regression.wav Pre-gap length 0:00:02.00 Peak level 99.9 %
Extraction speed 2.1 X
Track quality 100.0 %
Test CRC 4F143D45
Copy CRC 4F143D45
Accurately ripped (confidence 3) D0C9B45 (AR v2)
Copy OK

Track 2 Filename C:\EACcd\02 - Scene Two- I. Overture 1928.wav Peak level 100.0 %
Extraction speed 2.6 X
Track quality 100.0 %
Test CRC 9282AC8B
Copy CRC 9282AC8B
Accurately ripped (confidence 3) [3529DA46] (AR v2)
Copy OK

Track 3 Filename C:\EACcd\03 - Scene Two- II. Strange Deja Vu.wav Peak level 100.0 %
Extraction speed 3.0 X
Track quality 100.0 %
Test CRC 3D78CAD2
Copy CRC 3D78CAD2
Accurately ripped (confidence 3) [E5217B5D] (AR v2)
Copy OK

Track 4 Filename C:\EACcd\04 - Scene Three- I. Through My Words.wav Peak level 71.2 %
Extraction speed 2.2 X
Track quality 100.0 %
Test CRC 6D5E0CA4
Copy CRC 6D5E0CA4
Accurately ripped (confidence 3) [545C9410] (AR v2)
Copy OK

Track 5 Filename C:\EACcd\05 - Scene Three- II. Fatal Tragedy.wav Peak level 100.0 %
Extraction speed 3.4 X
Track quality 100.0 %
Test CRC 33D3153E
Copy CRC 33D3153E
Accurately ripped (confidence 3) [D82E8BCC] (AR v2)
Copy OK

Track 6 Filename C:\EACcd\06 - Scene Four- Beyond This Life.wav Peak level 100.0 %
Extraction speed 4.0 X
Track quality 100.0 %
Test CRC CA6D2D55
Copy CRC CA6D2D55
Accurately ripped (confidence 3) [5AA92F27] (AR v2)
Copy OK

Track 7 Filename C:\EACcd\07 - Scene Five- Through Her Eyes.wav Peak level 100.0 %
Extraction speed 4.1 X
Track quality 100.0 %
Test CRC 583632E4
Copy CRC 583632E4
Accurately ripped (confidence 3) [D11398A3] (AR v2)
Copy OK

Track 8 Filename C:\EACcd\08 - Scene Six- Home.wav Peak level 100.0 %
Extraction speed 4.8 X
Track quality 100.0 %
Test CRC 9B6531C3
Copy CRC 9B6531C3
Accurately ripped (confidence 3) [26B218D9] (AR v2)
Copy OK

Track 9 Filename C:\EACcd\09 - Scene Seven- I. The Dance of Eternity.wav Peak level 100.0 %
Extraction speed 4.9 X
Track quality 100.0 %
Test CRC 8AC5021C
Copy CRC 8AC5021C
Accurately ripped (confidence 3) [D0180F70] (AR v2)
Copy OK

Track 10 Filename C:\EACcd\10 - Scene Seven- II. One Last Time.wav Peak level 100.0 %
Extraction speed 4.2 X
Track quality 99.9 %
Test CRC 036F75D2
Copy CRC 036F75D2
Accurately ripped (confidence 3) [C8E8CB1E] (AR v2)
Copy OK

Track 11 Filename C:\EACcd\11 - Scene Eight- The Spirit Carries On.wav Peak level 100.0 %
Extraction speed 5.3 X
Track quality 100.0 %
Test CRC D6039DC0
Copy CRC D6039DC0
Accurately ripped (confidence 3) [135FB0F9] (AR v2)
Copy OK

Track 12 Filename C:\EACcd\12 - Scene Nine- Finally Free.wav Peak level 100.0 %
Extraction speed 5.8 X
Track quality 100.0 %
Test CRC 8C5509DF
Copy CRC 8C5509DF
Accurately ripped (confidence 3) [C37C9D3C] (AR v2)
Copy OK

All tracks accurately ripped

No errors occurred

End of status report

foobar2000 1.2.9 / Dynamic Range Meter 1.1.1
log date: 2015-01-24 17:09:29

--
Analyzed: Dream Theater / The Studio Albums - CD04 - Metropolis Pt.2: Scenes From A Memory
--

DR Peak RMS Duration Track
--
DR14 0.00 dB -17.98 dB 2:07 01-Scene One: Regression
DR7 0.00 dB -8.34 dB 3:38 02-Scene Two: I. Overture 1928
DR7 0.00 dB -7.56 dB 5:12 03-Scene Two: II. Strange Deja Vu
DR11 -2.95 dB -18.14 dB 1:02 04-Scene Three: I. Through My Words
DR7 0.00 dB -8.28 dB 6:49 05-Scene Three: II. Fatal Tragedy
DR7 0.00 dB -8.27 dB 11:23 06-Scene Four: Beyond This Life
DR9 0.00 dB -10.71 dB 5:29 07-Scene Five: Through Her Eyes
DR6 0.00 dB -7.93 dB 12:53 08-Scene Six: Home
DR7 0.00 dB -7.83 dB 6:14 09-Scene Seven: I. The Dance of Eternity
DR6 0.00 dB -8.30 dB 3:47 10-Scene Seven: II. One Last Time
DR8 0.00 dB -9.65 dB 6:38 11-Scene Eight: The Spirit Carries On
DR6 0.00 dB -9.37 dB 12:00 12-Scene Nine: Finally Free
--

Number of tracks: 12
Official DR value: DR8

Samplerate: 44100 Hz
Channels: 2
Bits per sample: 16
Bitrate: 961 kbps
Codec: FLAC

[CUETools log; Date: 24.01.2015 17:09:33; Version: 2.1.4]
[CTDB TOCID: tIObFJL4UmZhsZXw7Xwa_8fGIwg-] found.
Track | CTDB Status
1 | (341/351) Accurately ripped
2 | (348/351) Accurately ripped
3 | (348/351) Accurately ripped
4 | (350/351) Accurately ripped
5 | ( 18/351) Accurately ripped, or (309/351) differs in 1470 samples @00:36:51-00:36:52
6 | ( 18/351) Accurately ripped, or (309/351) differs in 12 samples @11:08:66
7 | (347/351) Accurately ripped
8 | (350/351) Accurately ripped
9 | (347/351) Accurately ripped
10 | (349/351) Accurately ripped
11 | (351/351) Accurately ripped
12 | (342/351) Accurately ripped
[AccurateRip ID: 001cd30b-011cf64e-9912180c] found.
Track [ CRC | V2 ] Status
01 [e973d0c6|bd0c9b45] (000+012/546) Accurately ripped
02 [5ab9924e|3529da46] (000+012/547) Accurately ripped
03 [f537c5ee|e5217b5d] (000+012/549) Accurately ripped
04 [a031b1b2|545c9410] (000+012/550) Accurately ripped
05 [795c193d|d82e8bcc] (000+012/552) Accurately ripped
06 [a385ed37|5aa92f27] (000+012/547) Accurately ripped
07 [38fdbe0d|d11398a3] (000+012/547) Accurately ripped
08 [509588ea|26b218d9] (000+012/547) Accurately ripped
09 [57004590|d0180f70] (000+012/547) Accurately ripped
10 [9010d743|c8e8cb1e] (000+012/548) Accurately ripped
11 [4855e585|135fb0f9] (000+012/548) Accurately ripped
12 [99799a9f|c37c9d3c] (000+012/543) Accurately ripped
Offsetted by -346:
01 [4adc7348] (000/546) No match
02 39e0dbc (000/547) No match
03 [214c7751] (000/549) No match
04 [6fe3714e] (000/550) No match (V2 was not tested)
05 [8c250833] (000/552) No match (V2 was not tested)
06 [41211e2c] (000/547) No match
07 [56608675] (000/547) No match
08 [87c689fc] (000/547) No match
09 [e8c4f75c] (000/547) No match
10 [7a8a4db3] (000/548) No match
11 [cbb6620d] (000/548) No match
12 [719934b8] (000/543) No match
Offsetted by 934:
01 [ec048e67] (005/546) Accurately ripped
02 [e837c04f] (005/547) Accurately ripped
03 [e2a7e7f8] (005/549) Accurately ripped
04 [0bb47564] (005/550) Accurately ripped
05 [a4ace8cf] (000/552) No match (V2 was not tested)
06 [72e1c756] (000/547) No match (V2 was not tested)
07 [fe0b7bec] (005/547) Accurately ripped
08 0d0bc2f (004/547) Accurately ripped
09 [d5a7b5d3] (005/547) Accurately ripped
10 [76d999bb] (005/548) Accurately ripped
11 [18984142] (004/548) Accurately ripped
12 [167aed14] (004/543) Accurately ripped
Offsetted by 956:
01 [8061a225] (002/546) Accurately ripped
02 [59c0bec5] (002/547) Accurately ripped
03 [cd08c278] (002/549) Accurately ripped
04 [19562f11] (002/550) Accurately ripped
05 [4312885e] (000/552) No match (V2 was not tested)
06 [15603a43] (000/547) No match (V2 was not tested)
07 [6020a6e5] (002/547) Accurately ripped
08 [7c41ec6d] (002/547) Accurately ripped
09 [4b14a356] (002/547) Accurately ripped
10 [1721140e] (002/548) Accurately ripped
11 [d07869e1] (002/548) Accurately ripped
12 [8bb57d2b] (002/543) Accurately ripped
Offsetted by 1549:
01 [75dd8b5f] (000/546) No match (V2 was not tested)
02 [1d2adf3f] (000/547) No match (V2 was not tested)
03 [d5794ebb] (000/549) No match (V2 was not tested)
04 [5bba8be1] (000/550) No match (V2 was not tested)
05 [af72c1b4] (000/552) No match (V2 was not tested)
06 [3d45e19f] (000/547) No match (V2 was not tested)
07 [5505f775] (000/547) No match (V2 was not tested)
08 [4c4a7a6a] (000/547) No match (V2 was not tested)
09 [1ae67de7] (000/547) No match (V2 was not tested)
10 dbc5224 (000/548) No match (V2 was not tested)
11 [c7372fef] (000/548) No match (V2 was not tested)
12 eeeefd3 (000/543) No match (V2 was not tested)
Offsetted by 1597:
01 [6fb7e2c2] (036/546) Accurately ripped
02 [4ad2cfd1] (035/547) Accurately ripped
03 [e5641e99] (035/549) Accurately ripped
04 [5ae95149] (035/550) Accurately ripped
05 [1ff18a5c] (000/552) No match (V2 was not tested)
06 [7551c83a] (000/547) No match (V2 was not tested)
07 [20a03703] (035/547) Accurately ripped
08 [24766002] (035/547) Accurately ripped
09 [2d46da4b] (035/547) Accurately ripped
10 [9b542520] (035/548) Accurately ripped
11 [8637d724] (035/548) Accurately ripped
12 [7fc09982] (000/543) No match (V2 was not tested)
Offsetted by 1609:
01 [c4e7c780] (000/546) No match (V2 was not tested)
02 [5e928947] (000/547) No match (V2 was not tested)
03 [a3641291] (000/549) No match (V2 was not tested)
04 609fba5 (000/550) No match (V2 was not tested)
05 [87573e89] (000/552) No match (V2 was not tested)
06 [5d5e5d36] (000/547) No match (V2 was not tested)
07 [3952bcca] (000/547) No match (V2 was not tested)
08 [9473c0bd] (000/547) No match (V2 was not tested)
09 [7e3f5bfb] (000/547) No match (V2 was not tested)
10 [1e7f9bda] (000/548) No match (V2 was not tested)
11 [7d4664e2] (000/548) No match (V

Dream Theater - The Studio Albums 1992-2011 (2014) [11CD Box Set] Fast Download



 
 
 
Dear visitor, you went to the site as an unregistered user. We encourage you to register or enter the site under your name.
 
   
 
 (Votes #: 0)