2013Zone For Latest Downloads

 
     
 
Legal Downloads » Music » The Rolling Stones - Dirty Work (1986) [1986, CBS 465953 2]
Menu
Home Applications
Games Movies
Music TV Shows
Torrents Graphics

Sitemap

RSS
 
Advanced Search
Last News
Site Info
Top Contributors:
  1    supper88 32766
  2    admin 32636
  3    Whisky 10080
  4    Shark_ 8911
  5    creativelivenew 8706
  6    whathesupa 2799
  7    candymypost 840
  8    hvnteam 629
  9    vuong87 3


Articles:
  This Hour: 0
  Today: 0
  This Month: 30
  All Time: 515723


Torrents:
  Today: 0
  Yesterday: 0
  All Time: 156682


Membership:
  Registered Today :0
  This Hour:0
  This Month:0
  Total:14
  Banned:1

{online}
{inform_torrent}
Friend:
We Recomend
Trend
Trend
onlinemovies

Search In Site

Music : The Rolling Stones - Dirty Work (1986) [1986, CBS 465953 2]
 
http://i58.fastpic.ru/big/2015/0218/57/68da910ca205a0c09bd578b994da3c57.jpg

The Rolling Stones - Dirty Work (1986)
EAC | Flac(Image) + Cue + Log & MP3 CBR 320Kbps
CBS 465953 2 | ~ 260 or 104 Mb | Scans(jpg) -> 80 Mb
Classic Rock

"Reuniting after three years and one solo album from Mick Jagger, the Rolling Stones attempted to settle their differences and craft a comeback with Dirty Work, but the tensions remained too great for the group..."

The Rolling Stones - Dirty Work (1986):

http://i65.fastpic.ru/big/2015/0218/c4/c2146aa42d88e751da21b948a8f5ddc4.jpg

Tracklist:

1. One Hit (To the Body) (4:43)
2. Fight (3:09)
3. Harlem Shuffle (3:24)
4. Hold Back (3:52)
5. Too Rude (3:11)
6. Winning Ugly (4:32)
7. Back to Zero (3:59)
8. Dirty Work (3:54)
9. Had It with You (3:19)
10. Sleep Tonight (5:10)
11. Key to the Highway (0:32)

Musicians:

Mick Jagger - lead and backing vocals, harmonica
Keith Richards - electric and acoustic guitars, backing vocals, lead vocals on "Too Rude" and "Sleep Tonight", piano
Ronnie Wood - electric, acoustic and pedal steel guitar, backing vocals, drums on "Sleep Tonight", tenor saxophone
Charlie Watts - drums
Bill Wyman - bass guitar and synthesizer

Additional musicians:
Chuck Leavell - keyboards
Ivan Neville - backing vocals, bass guitar, organ, synthesizer
Jimmy Page - electric guitar on "One Hit (To the Body)"
Bobby Womack - backing vocals, electric guitar on "Back to Zero"
Philippe Saisse - keyboards
Anton Fig - shakers
Dan Collette - trumpet
Jimmy Cliff - backing vocals
Don Covay - backing vocals
Beverly D'Angelo - backing vocals
Kirsty MacColl - backing vocals
Dollette McDonald - backing vocals
Janice Pendarvis - backing vocals
Patti Scialfa - backing vocals
Tom Waits - backing vocals
Ian Stewart - piano


Exact Audio Copy V1.0 beta 3 from 29. August 2011

EAC extraction logfile from 17. May 2013, 18:05

The Rolling Stones / Dirty Work (CBS 465953 2)

Used drive : PLEXTOR DVDR PX-891SA Adapter: 1 ID: 0

Read mode : Secure
Utilize accurate stream : Yes
Defeat audio cache : Yes
Make use of C2 pointers : No

Read offset correction : 6
Overread into Lead-In and Lead-Out : No
Fill up missing offset samples with silence : Yes
Delete leading and trailing silent blocks : No
Null samples used in CRC calculations : Yes
Used interface : Native Win32 interface for Win NT & 2000

Used output format : User Defined Encoder
Selected bitrate : 1024 kBit/s
Quality : High
Add ID3 tag : No
Command line compressor : C:\Program Files\Exact Audio Copy\Flac\flac.exe
Additional command line options : -V -8 -T "Genre=%genre%" -T "Artist=%artist%" -T "Title=%title%" -T "Album=%albumtitle%" -T "Date=%year%" -T "Tracknumber=%tracknr%" -T "Comment=%comment%" %source%

TOC of the extracted CD Track | Start | Length | Start sector | End sector
-----------
1 | 0:00.00 | 4:44.67 | 0 | 21366
2 | 4:44.67 | 3:10.33 | 21367 | 35649
3 | 7:55.25 | 3:26.00 | 35650 | 51099
4 | 11:21.25 | 3:53.22 | 51100 | 68596
5 | 15:14.47 | 3:13.13 | 68597 | 83084
6 | 18:27.60 | 4:33.22 | 83085 | 103581
7 | 23:01.07 | 4:00.63 | 103582 | 121644
8 | 27:01.70 | 3:53.67 | 121645 | 139186
9 | 30:55.62 | 3:20.43 | 139187 | 154229
10 | 34:16.30 | 5:14.05 | 154230 | 177784
11 | 39:30.35 | 0:32.15 | 177785 | 180199

Range status and errors

Selected range Filename H:\dafnaplus\Rolling Stones - Dirty Work\The Rolling Stones - Dirty Work (CBS 465953 2).wav Peak level 100.0 %
Extraction speed 7.3 X
Range quality 99.9 %
Test CRC AE0C7432
Copy CRC AE0C7432
Copy OK

No errors occurred


AccurateRip summary

Track 1 accurately ripped (confidence 9) [28401145] (AR v2)
Track 2 accurately ripped (confidence 9) [DD3D94D4] (AR v2)
Track 3 accurately ripped (confidence 9) [CB576744] (AR v2)
Track 4 accurately ripped (confidence 9) [667E67CD] (AR v2)
Track 5 accurately ripped (confidence 9) [ADEEB317] (AR v2)
Track 6 accurately ripped (confidence 9) [EFA249CC] (AR v2)
Track 7 accurately ripped (confidence 9) [7F3682B8] (AR v2)
Track 8 accurately ripped (confidence 9) [CD70E978] (AR v2)
Track 9 accurately ripped (confidence 9) [EA404531] (AR v2)
Track 10 accurately ripped (confidence 9) [A19F06C0] (AR v2)
Track 11 accurately ripped (confidence 9) [97F960BC] (AR v2)

All tracks accurately ripped

End of status report

==== Log checksum 34751598CE6C7C131B2AF18279F66670C5AE97F17781907D19BA42FE06DA6016 ====

foobar2000 1.2.9 / Dynamic Range Meter 1.1.1
log date: 2015-02-16 13:14:08

--
Analyzed: The Rolling Stones / Dirty Work (CBS 465953 2)
--

DR Peak RMS Duration Track
--
DR15 -0.51 dB -17.29 dB 4:45 01-One Hit (To the Body)
DR15 0.00 dB -16.80 dB 3:10 02-Fight
DR14 -2.00 dB -18.12 dB 3:26 03-Harlem Shuffle
DR15 -0.53 dB -17.09 dB 3:53 04-Hold Back
DR17 0.00 dB -18.78 dB 3:13 05-Too Rude
DR13 -0.95 dB -16.21 dB 4:33 06-Winning Ugly
DR18 0.00 dB -19.97 dB 4:01 07-Back to Zero
DR14 -0.33 dB -16.57 dB 3:54 08-Dirty Work
DR15 0.00 dB -16.33 dB 3:21 09-Had It with You
DR16 -0.11 dB -19.08 dB 5:14 10-Sleep Tonight
DR11 -12.03 dB -28.34 dB 0:32 11-Key to the Highway
--

Number of tracks: 11
Official DR value: DR15

Samplerate: 44100 Hz
Channels: 2
Bits per sample: 16
Bitrate: 858 kbps
Codec: FLAC

[CUETools log; Date: 14.01.2014 22:32:31; Version: 2.1.5]
[CTDB TOCID: v2umNq8LwdDMPmav1INg4b4i_oI-] found.
Track | CTDB Status
1 | (27/27) Accurately ripped
2 | (27/27) Accurately ripped
3 | (27/27) Accurately ripped
4 | (27/27) Accurately ripped
5 | (26/27) Accurately ripped
6 | (27/27) Accurately ripped
7 | (27/27) Accurately ripped
8 | (27/27) Accurately ripped
9 | (27/27) Accurately ripped
10 | (27/27) Accurately ripped
11 | (27/27) Accurately ripped
[AccurateRip ID: 0011572c-0095a3f0-9d09620b] found.
Track [ CRC | V2 ] Status
01 [e83a7598|28401145] (31+35/66) Accurately ripped
02 [fb1718c8|dd3d94d4] (32+35/67) Accurately ripped
03 86abad7|cb576744 (32+35/67) Accurately ripped
04 [552a0b10|667e67cd] (32+35/67) Accurately ripped
05 [c1459b15|adeeb317] (32+35/67) Accurately ripped
06 [af833d4c|efa249cc] (31+35/66) Accurately ripped
07 [3201a090|7f3682b8] (32+33/65) Accurately ripped
08 [d3a467de|cd70e978] (32+35/67) Accurately ripped
09 [c9481ac4|ea404531] (32+35/67) Accurately ripped
10 [f1a99789|a19f06c0] (33+34/67) Accurately ripped
11 [3ddd0123|97f960bc] (33+34/67) Accurately ripped
Offsetted by 154:
01 [77088dd5] (00/66) No match
02 [61f12194] (00/67) No match (V2 was not tested)
03 [e562b15f] (00/67) No match
04 [9c7c1d02] (00/67) No match
05 [a00dd567] (00/67) No match
06 [0a54dbae] (00/66) No match
07 [c585cd2c] (00/65) No match
08 [84411128] (00/67) No match
09 [a6d85b38] (00/67) No match
10 [7bcde50f] (00/67) No match
11 [6181c81c] (00/67) No match
Offsetted by 220:
01 [978595e1] (00/66) No match (V2 was not tested)
02 [204e9310] (00/67) No match
03 [d4161b07] (00/67) No match
04 [967ab6fc] (00/67) No match
05 663a541 (00/67) No match
06 [0caeb1d8] (00/66) No match
07 [2950bbb8] (00/65) No match
08 [ab5fa2da] (00/67) No match
09 [e13abffc] (00/67) No match
10 [db944f6d] (00/67) No match
11 [d321d146] (00/67) No match
Offsetted by 304:
01 [e361db76] (00/66) No match
02 [29dcc668] (00/67) No match
03 [1b28fe97] (00/67) No match (V2 was not tested)
04 d61a980 (00/67) No match
05 [75b99685] (00/67) No match
06 [e121083c] (00/66) No match
07 [79c75fb0] (00/65) No match
08 [dd29738e] (00/67) No match
09 [715ae324] (00/67) No match
10 [9b4b0559] (00/67) No match
11 [053f3680] (00/67) No match
Offsetted by 472:
01 [aff2508b] (00/66) No match
02 [3cf92d18] (00/67) No match
03 [a94ec5b7] (00/67) No match
04 [0b2f8e88] (00/67) No match (V2 was not tested)
05 [f465790d] (00/67) No match (V2 was not tested)
06 [8a05b504] (00/66) No match (V2 was not tested)
07 [1ab4a7a0] (00/65) No match (V2 was not tested)
08 [40bd14f6] (00/67) No match (V2 was not tested)
09 [919b2974] (00/67) No match (V2 was not tested)
10 [1ab87131] (00/67) No match (V2 was not tested)
11 [8d0921ec] (00/67) No match (V2 was not tested)

Track Peak [ CRC32 ] [W/O NULL] [ LOG ]
-- 100,0 [AE0C7432] [CF2392B0] CRC32
01 94,2 [582F0A33] [850282C2]
02 99,9 [53AA2232] [5E0C05A9]
03 79,4 [1DF9CE85] [7339D9F9]
04 94,0 [E9CCCA4D] [3B9D6DA5]
05 100,0 [2DEAEFE7] [A979838D]
06 89,6 [417DDFAB] [D41FC50D]
07 100,0 BBFA97B [A16BE2CF]
08 96,2 [F8B8F77E] [20A20E29]
09 100,0 [0FD23DC4] [FCE498FF]
10 98,7 F9879AE [048BB556]
11 25,0 [32CCDA04] [7B93463C]

http://i64.fastpic.ru/big/2015/0218/f2/f99ea40471b1cba233de175c037946f2.jpg

DOWNLOAD LINKS:
Buy Premium To Support Me & Get Resumable Support & Max Speed


Links are Interchangeable - No Password - Single Extraction

 
 
 
Dear visitor, you went to the site as an unregistered user. We encourage you to register or enter the site under your name.
 
   
 
 (Votes #: 0)