Advertise
onlinemovies


Karin Jones - Under The Influence Of Love (1982) [2005, Reissue]

Published On: 20-02-2015, 06:05
http://i60.fastpic.ru/big/2015/0220/e3/1130ffca29aca5108e739b64094d09e3.jpg

Karin Jones - Under The Influence Of Love (1982) [2005, Reissue]
R&B, Soul/Funk, Disco | EAC Rip | FLAC, Img+CUE + LOG + Full Scans-600dpi (JPEG) | 34:57 Min | 259,66 Mb
Label: Handshake Records (USA) | Released: 2005

"
Karin Jones was born and raised in Philadelphia. She took her first musical steps singing in church. She was gifted with an extremely talented ear, she was an accomplished pianist, percussionist and drummer, mostly developed without formal training.
"

http://i59.fastpic.ru/big/2015/0220/fa/8256cf63e1ed41d664b6dffd10e173fa.jpg

http://i57.fastpic.ru/big/2015/0220/a6/8290e8bd545a07b7534bbbdc94b59ca6.jpg


Release of the album: 1982 [LP Handshake Records & Tapes, Cat.# FW 38155, USA]
Release of this CD: 2005 [CD Handshake Records (USA), Cat.# FW 38155 / UPC: 022553815528]
℗ & © 1982 Handshake Records
Note: Reissue, Limited Edition (100 CDs only! so it's a very expensive and rare CD...)

Producers: Bruce Hawes (tracks: 4), Eddie Levert (tracks: 3, 5-6, 8), Howard King (tracks: 1), Jim Tyrrell (tracks: 2, 7)
Arranged By - Dunn Pearson Jr.
Vocals - Eddie Levert (track: 2)


Tracklist:

01. Under The Influence Of Love (05:34)
(H. King / E. Moore)
02. You Know Me, I Know You (03:32)
(R. Jones)
03. Here I Go Again (03:50)
(E. Levert / W. Williams / D. Williams)
04. So Right (04:22)
(B. Hawes / P. Cooper)
05. Last Night In My Dreams (05:14)
(E. Levert / T. Stubbs / M. Jackson)
06. Ready, Ready Love (04:23)
(E. Levert / M. Jackson / W. Ross)
07. If You're In A Hurry (03:42)
(B. Gray)
08. Ooh! Baby, Don't (04:20)
(E. Levert / T. Stubbs / M. Jackson)

Exact Audio Copy V1.0 beta 3 from 29. August 2011

EAC extraction logfile from 18. April 2013, 16:34

Karin Jones / Under The Influence Of Love

Used drive : ATAPI DVD DW 8X16X8X16 Adapter: 0 ID: 2

Read mode : Secure
Utilize accurate stream : Yes
Defeat audio cache : Yes
Make use of C2 pointers : No

Read offset correction : 618
Overread into Lead-In and Lead-Out : No
Fill up missing offset samples with silence : Yes
Delete leading and trailing silent blocks : No
Null samples used in CRC calculations : Yes
Used interface : Native Win32 interface for Win NT & 2000

Used output format : Internal WAV Routines
Sample format : 44.100 Hz; 16 Bit; Stereo

TOC of the extracted CD Track | Start | Length | Start sector | End sector
-----------
1 | 0:00.00 | 5:34.33 | 0 | 25082
2 | 5:34.33 | 3:32.51 | 25083 | 41033
3 | 9:07.09 | 3:50.68 | 41034 | 58351
4 | 12:58.02 | 4:22.29 | 58352 | 78030
5 | 17:20.31 | 5:14.24 | 78031 | 101604
6 | 22:34.55 | 4:23.14 | 101605 | 121343
7 | 26:57.69 | 3:42.19 | 121344 | 138012
8 | 30:40.13 | 4:20.60 | 138013 | 157572

Range status and errors

Selected range Filename C:\BlondStyle\Karin Jones - Under The Influence Of Love.wav Peak level 100.0 %
Extraction speed 7.6 X
Range quality 100.0 %
Test CRC AD3C455B
Copy CRC AD3C455B
Copy OK

No errors occurred


AccurateRip summary

Track 1 accurately ripped (confidence 1) [A70A492F] (AR v1)
Track 2 accurately ripped (confidence 1) [2756A45A] (AR v1)
Track 3 accurately ripped (confidence 1) [0D92AC8D] (AR v1)
Track 4 accurately ripped (confidence 1) [2B17857D] (AR v1)
Track 5 accurately ripped (confidence 1) [9660BBEA] (AR v1)
Track 6 accurately ripped (confidence 1) [6AF731A7] (AR v1)
Track 7 accurately ripped (confidence 1) [C20C7FB1] (AR v1)
Track 8 accurately ripped (confidence 1) [9A5F3992] (AR v1)

All tracks accurately ripped

End of status report

==== Log checksum 0DBAB38A6A7E749A3C0B255B58C694E7FDFC8CF351BBBE98EB8722CA78D8950F ====

[Disc ID: 000b008b-0048e893-65083408]
Track [ CRC ] Status
01 [a70a492f] (01/01) Accurately ripped as in pressing(s) #1
02 [2756a45a] (01/01) Accurately ripped as in pressing(s) #1
03 [0d92ac8d] (01/01) Accurately ripped as in pressing(s) #1
04 [2b17857d] (01/01) Accurately ripped as in pressing(s) #1
05 [9660bbea] (01/01) Accurately ripped as in pressing(s) #1
06 [6af731a7] (01/01) Accurately ripped as in pressing(s) #1
07 [c20c7fb1] (01/01) Accurately ripped as in pressing(s) #1
08 [9a5f3992] (01/01) Accurately ripped as in pressing(s) #1

-
Statistics for: Karin Jones - Under The Influence Of Love.wav
Number of Samples: 92652924
- left right

Peak value: -0.00 dB --- -0.00 dB
Avg RMS: -13.71 dB --- -14.92 dB
DR channel: 12.07 dB --- 13.21 dB
-

Official DR value: DR13
=
DOWNLOAD LINKS:
Buy Premium To Support Me & Get Resumable Support & Max Speed


Links are Interchangeable - No Password - Single Extraction
[related-news][/related-news]
Dear visitor, you are browsing our website as Guest.
We strongly recommend you to register and login to view hidden contents.

Comments:

Add Comments
 

This site doesn't store any files on its server. We only index and link to content provided by other sites.