2013Zone For Latest Downloads

 
     
 
Legal Downloads » Music » Bruce Brubaker - Time Curve: Music for Piano by Philip Glass and William Duckworth (2009)
Menu
Home Applications
Games Movies
Music TV Shows
Torrents Graphics

Sitemap

RSS
 
Advanced Search
Last News
Site Info
Top Contributors:
  1    supper88 32766
  2    admin 32630
  3    Whisky 10080
  4    Shark_ 8911
  5    creativelivenew 8706
  6    whathesupa 2799
  7    candymypost 840
  8    hvnteam 629
  9    vuong87 3


Articles:
  This Hour: 0
  Today: 14
  This Month: 44
  All Time: 515735


Torrents:
  Today: 0
  Yesterday: 0
  All Time: 156682


Membership:
  Registered Today :0
  This Hour:0
  This Month:0
  Total:14
  Banned:1

{online}
{inform_torrent}
Friend:
We Recomend
Trend
Trend
onlinemovies

Search In Site

Music : Bruce Brubaker - Time Curve: Music for Piano by Philip Glass and William Duckworth (2009)
 
http://i66.fastpic.ru/big/2015/0221/c5/6a01fac3cb6e7b84359171ec166658c5.jpg

Bruce Brubaker - Time Curve: Music for Piano by Philip Glass and William Duckworth (2009)
EAC | FLAC | Image (Cue&Log) ~ 284 Mb (incl 5%) | Mp3 (CBR320) ~ 222 Mb (incl 5%) | Scans included
Genre: Mimimalism, Post-Minimalism | Label: Arabesque Recordings | # Z6806 | Time: 01:10:52

"This very appealing disc of post-minimal solo piano music, played by Bruce Brubaker, includes two multi-movements works by William Duckworth and Philip Glass."



Tracklist:

Philip Glass - Six Etudes for Piano:

01. Glass - Etude No.1 (04:16)
02. Glass - Etude No.2 (06:51)
03. Glass - Etude No.3 (04:27)
04. Glass - Etude No.4 (03:48)
05. Glass - Etude No.5 (04:48)
06. Glass - Etude No.6 (06:51)

William Duckworth - The Time Curve Preludes, Book I:

07. Duckworth - The Time Curve Prelude I (03:17)
08. Duckworth - The Time Curve Prelude II (02:04)
09. Duckworth - The Time Curve Prelude III (01:54)
10. Duckworth - The Time Curve Prelude IV (02:19)
11. Duckworth - The Time Curve Prelude V (02:24)
12. Duckworth - The Time Curve Prelude VI (05:12)
13. Duckworth - The Time Curve Prelude VII (02:43)
14. Duckworth - The Time Curve Prelude VIII (02:49)
15. Duckworth - The Time Curve Prelude IX (02:51)
16. Duckworth - The Time Curve Prelude X (02:25)
17. Duckworth - The Time Curve Prelude XI (Freely, with great rubato) (06:51)
18. Duckworth - The Time Curve Prelude XII (04:54)


Exact Audio Copy V1.0 beta 1 from 15. November 2010

EAC extraction logfile from 28. July 2012, 16:20

Bruce Brubaker / Time Curve

Used drive : Optiarc DVD RW AD-7203A Adapter: 4 ID: 1

Read mode : Secure
Utilize accurate stream : Yes
Defeat audio cache : Yes
Make use of C2 pointers : No

Read offset correction : 48
Overread into Lead-In and Lead-Out : No
Fill up missing offset samples with silence : Yes
Delete leading and trailing silent blocks : No
Null samples used in CRC calculations : Yes
Used interface : Native Win32 interface for Win NT & 2000

Used output format : User Defined Encoder
Selected bitrate : 128 kBit/s
Quality : High
Add ID3 tag : No
Command line compressor : C:\Program Files\FLAC\flac.exe
Additional command line options : -T "COMMENT=Ripped by GFox" -8 -V %s

TOC of the extracted CD Track | Start | Length | Start sector | End sector
-----------
1 | 0:00.00 | 4:16.51 | 0 | 19250
2 | 4:16.51 | 6:51.42 | 19251 | 50117
3 | 11:08.18 | 4:27.42 | 50118 | 70184
4 | 15:35.60 | 3:48.12 | 70185 | 87296
5 | 19:23.72 | 4:48.23 | 87297 | 108919
6 | 24:12.20 | 6:51.18 | 108920 | 139762
7 | 31:03.38 | 3:17.06 | 139763 | 154543
8 | 34:20.44 | 2:04.28 | 154544 | 163871
9 | 36:24.72 | 1:54.37 | 163872 | 172458
10 | 38:19.34 | 2:19.03 | 172459 | 182886
11 | 40:38.37 | 2:24.62 | 182887 | 193748
12 | 43:03.24 | 5:12.13 | 193749 | 217161
13 | 48:15.37 | 2:43.62 | 217162 | 229448
14 | 50:59.24 | 2:49.70 | 229449 | 242193
15 | 53:49.19 | 2:51.41 | 242194 | 255059
16 | 56:40.60 | 2:25.20 | 255060 | 265954
17 | 59:06.05 | 6:51.36 | 265955 | 296815
18 | 65:57.41 | 4:54.39 | 296816 | 318904

Range status and errors

Selected range Filename D:\EAC\Bruce Brubaker - Time Curve.wav Peak level 85.9 %
Extraction speed 0.2 X
Range quality 99.9 %
Test CRC D5678D0A
Copy CRC D5678D0A
Copy OK

No errors occurred


AccurateRip summary

Track 1 accurately ripped (confidence 2) [CC38126C]
Track 2 accurately ripped (confidence 2) [C9DA01C3]
Track 3 accurately ripped (confidence 2) [18F141B0]
Track 4 accurately ripped (confidence 2) [45D83A92]
Track 5 accurately ripped (confidence 2) [C41CCDF1]
Track 6 accurately ripped (confidence 2) [42ABA2D8]
Track 7 accurately ripped (confidence 2) [3155025B]
Track 8 accurately ripped (confidence 2) [2B38F853]
Track 9 accurately ripped (confidence 2) [DFCF1D4C]
Track 10 accurately ripped (confidence 2) [8C7776C3]
Track 11 accurately ripped (confidence 2) [F3EA86F5]
Track 12 accurately ripped (confidence 2) [6AE1E706]
Track 13 accurately ripped (confidence 2) [E4EB2D0C]
Track 14 accurately ripped (confidence 2) [139F8772]
Track 15 accurately ripped (confidence 2) [F1C70FE3]
Track 16 accurately ripped (confidence 2) [2A7559A2]
Track 17 accurately ripped (confidence 2) [0F81E66D]
Track 18 accurately ripped (confidence 2) [D2F0AD87]

All tracks accurately ripped

End of status report

==== Log checksum 8C2F385A32DD292D43E93AA3B980CEF5EC867E75F2CA80A5A7DD864395D82645 ====

foobar2000 1.2 / Dynamic Range Meter 1.1.1
log date: 2015-02-19 15:25:00

--
Analyzed: Bruce Brubaker / Time Curve
--

DR Peak RMS Duration Track
--
DR12 -1.31 dB -17.65 dB 4:17 01-Glass - Etude No.1
DR13 -9.23 dB -29.52 dB 6:52 02-Glass - Etude No.2
DR13 -5.21 dB -24.42 dB 4:28 03-Glass - Etude No.3
DR14 -1.53 dB -22.84 dB 3:48 04-Glass - Etude No.4
DR16 -14.51 dB -36.22 dB 4:48 05-Glass - Etude No.5
DR13 -4.05 dB -21.92 dB 6:51 06-Glass - Etude No.6
DR12 -7.23 dB -22.83 dB 3:17 07-Duckworth - The Time Curve Prelude I
DR12 -6.02 dB -27.22 dB 2:04 08-Duckworth - The Time Curve Prelude II
DR12 -21.84 dB -37.89 dB 1:54 09-Duckworth - The Time Curve Prelude III
DR11 -5.66 dB -21.14 dB 2:19 10-Duckworth - The Time Curve Prelude IV
DR14 -1.67 dB -22.27 dB 2:25 11-Duckworth - The Time Curve Prelude V
DR11 -6.71 dB -20.55 dB 5:12 12-Duckworth - The Time Curve Prelude VI
DR13 -10.31 dB -27.69 dB 2:44 13-Duckworth - The Time Curve Prelude VII
DR13 -20.17 dB -38.06 dB 2:50 14-Duckworth - The Time Curve Prelude VIII
DR13 -5.31 dB -22.96 dB 2:52 15-Duckworth - The Time Curve Prelude IX
DR13 -4.11 dB -22.11 dB 2:25 16-Duckworth - The Time Curve Prelude X
DR12 -7.96 dB -27.04 dB 6:51 17-Duckworth - The Time Curve Prelude XI (Freely, with great rubato)
DR12 -4.55 dB -21.27 dB 4:55 18-Duckworth - The Time Curve Prelude XII
--

Number of tracks: 18
Official DR value: DR13

Samplerate: 44100 Hz
Channels: 2
Bits per sample: 16
Bitrate: 437 kbps
Codec: FLAC

http://i60.fastpic.ru/big/2015/0221/65/5423b41e93a5f995c34622efb48e5165.jpg



DOWNLOAD LINKS:
Buy Premium To Support Me & Get Resumable Support & Max Speed


Links are Interchangeable - No Password - Single Extraction

 
 
 
Dear visitor, you went to the site as an unregistered user. We encourage you to register or enter the site under your name.
 
   
 
 (Votes #: 0)