2013Zone For Latest Downloads

 
     
 
Legal Downloads » Music » Blood, Sweat & Tears - Blood, Sweat & Tears (1969) [2014 Audio Fidelity SACD AFZ5 198]
Menu
Home Applications
Games Movies
Music TV Shows
Torrents Graphics

Sitemap

RSS
 
Advanced Search
Last News
Site Info
Top Contributors:
  1    supper88 32766
  2    admin 32671
  3    Whisky 10080
  4    Shark_ 8911
  5    creativelivenew 8706
  6    whathesupa 2799
  7    candymypost 840
  8    hvnteam 629
  9    vuong87 3


Articles:
  This Hour: 0
  Today: 20
  This Month: 78
  All Time: 515636


Torrents:
  Today: 0
  Yesterday: 0
  All Time: 156702


Membership:
  Registered Today :0
  This Hour:0
  This Month:0
  Total:14
  Banned:1

{online}
{inform_torrent}
Friend:
We Recomend
Trend
Trend
Ad1

Search In Site

Music : Blood, Sweat & Tears - Blood, Sweat & Tears (1969) [2014 Audio Fidelity SACD AFZ5 198]
 
http://i68.fastpic.ru/big/2015/0224/e8/43feefbf59b1f5d7cb1e6b16dafc1de8.jpg

Blood, Sweat & Tears - Blood, Sweat & Tears (1969) [2014 Audio Fidelity SACD AFZ5 198]
EAC Secure Rip | FLAC (Image + Cue + Log) - 279 MB | Complete Scans (Jpeg 600 dpi) - 127 MB | MP3 (CBR320 Kbps) - 116 MB
Rock, Jazz Fusion | Audio Fidelity | AFZ5 198 | 46:52 minutes | Hosted On: NitroFlare &
CONTAINS CD LAYER ONLY

Blood, Sweat & Tears is the second album by the band Blood, Sweat & Tears. It was a huge commercial success, rising to the top of the U.S. charts for a collective seven weeks and yielding three successive Top 5 singles. It received a Grammy Award for Album of the Year in 1970 and has been certified quadruple platinum by the RIAA with sales of more than four million units in the U.S.
"The difference between Blood, Sweat & Tears and the group's preceding long-player, Child Is Father to the Man, is the difference between a monumental seller and a record that was "merely" a huge critical success. Arguably, the Blood, Sweat & Tears that made this self-titled second album -- consisting of five of the eight original members and four newcomers, including singer David Clayton-Thomas -- was really a different group from the one that made Child Is Father to the Man, which was done largely under the direction of singer/songwriter/keyboard player/arranger Al Kooper. They had certain similarities to the original: the musical mixture of classical, jazz, and rock elements was still apparent, and the interplay between the horns and the keyboards was still occurring, even if those instruments were being played by different people. Kooper was even still present as an arranger on two tracks, notably the initial hit "You've Made Me So Very Happy." But the second BS&T, under the aegis of producer James William Guercio, was a less adventurous unit, and, as fronted by Clayton-Thomas, a far more commercial one. Not only did the album contain three songs that neared the top of the charts as singles -- "Happy," "Spinning Wheel," and "And When I Die" -- but the whole album, including an arrangement of "God Bless the Child" and the radical rewrite of Traffic's "Smiling Phases," was wonderfully accessible. It was a repertoire to build a career on, and Blood, Sweat & Tears did exactly that, although they never came close to equaling this album. Reviewed by William Ruhlmann allmusic.com"


Exact Audio Copy V1.0 beta 2 from 29. April 2011

EAC extraction logfile from 14. February 2015, 13:42

Blood, Sweat & Tears / Blood, Sweat & Tears [2014 Audio Fidelity SACD AFZ5 198]

Used drive : HL-DT-STBD-RE BH14NS40 Adapter: 0 ID: 2

Read mode : Secure
Utilize accurate stream : Yes
Defeat audio cache : Yes
Make use of C2 pointers : No

Read offset correction : 6
Overread into Lead-In and Lead-Out : No
Fill up missing offset samples with silence : Yes
Delete leading and trailing silent blocks : No
Null samples used in CRC calculations : Yes
Used interface
: Native Win32 interface for Win NT & 2000

Used output format : User Defined Encoder
Selected bitrate : 1024 kBit/s
Quality
: High
Add ID3 tag : No
Command line compressor : C:\Program Files (x86)\Exact Audio Copy\Flac\flac.exe
Additional command line options : -V -5 -T "artist=%albumartist%" -T "title=%title%" -T "album=%albumtitle%" -T "date=%year%" -T "genre=%genre%" -T "tracknumber=%tracknr%" %source%

TOC of the extracted CD Track | Start | Length | Start sector | End sector
-----------
1 | 0:00.00 | 2:34.20 | 0 | 11569
2 | 2:34.20 | 5:09.33 | 11570 | 34777
3 | 7:43.53 | 3:09.07 | 34778 | 48959
4 | 10:52.60 | 3:05.19 | 48960 | 62853
5 | 13:58.04 | 4:04.10 | 62854 | 81163
6 | 18:02.14 | 6:01.15 | 81164 | 108253
7 | 24:03.29 | 4:07.42 | 108254 | 126820
8 | 28:10.71 | 4:17.45 | 126821 | 146140
9 | 32:28.41 | 11:44.10 | 146141 | 198950
10 | 44:12.51 | 1:39.41 | 198951 | 206416

Range status and errors

Selected range Filename C:\EAC\Blood, Sweat & Tears - (1969) Blood, Sweat & Tears [2014 Audio Fidelity SACD AFZ5 198]\Blood, Sweat & Tears - Blood, Sweat & Tears [2014 Audio Fidelity SACD AFZ5 198].wav Peak level 97.9 %
Extraction speed 4.5 X
Range quality 100.0 %
Test CRC 32DB8057
Copy CRC 32DB8057
Copy OK

No errors occurred


AccurateRip summary

Track 1 accurately ripped (confidence 2) [747E1E97] (AR v2)
Track 2 accurately ripped (confidence 2) [E6B84A9C] (AR v2)
Track 3 accurately ripped (confidence 2) [28E43F6A] (AR v2)
Track 4 accurately ripped (confidence 2) [CDF20778] (AR v2)
Track 5 accurately ripped (confidence 2) [E976E676] (AR v2)
Track 6 accurately ripped (confidence 2) [6654CEDE] (AR v2)
Track 7 accurately ripped (confidence 2) [9E3809A3] (AR v2)
Track 8 accurately ripped (confidence 2) [0E457339] (AR v2)
Track 9 accurately ripped (confidence 2) [5C34007B] (AR v2)
Track 10 accurately ripped (confidence 2) [6CF4DD8A] (AR v2)

All tracks accurately ripped

End of status report

==== Log checksum 3ED4ED8A8498280AD5A6108B788F9BF2538CE5A3916D5E4222C13AB2721558A2 ====

Track Listing:

01. Variations On A Theme By Erik Satie (1st And 2nd Movements)
02. Smiling Phases
03. Sometimes In Winter
04. More And More
05. And When I Die
06. God Bless The Child
07. Spinning Wheel
08. You've Made Me So Very Happy
09. Blues - Part II
10. Variations On A Theme By Erik Satie (1st Movement)

Personnel:

David Clayton-Thomas - lead vocals
Lew Soloff - trumpet, flugelhorn
Bobby Colomby - drums, percussion, vocals
Jim Fielder - bass
Dick Halligan - organ, piano, flute, trombone, vocals
Steve Katz - guitar, harmonica, vocals, lead vocals on "Sometimes In Winter"
Fred Lipsius - alto saxophone, piano
Chuck Winfield - trumpet, flugelhorn
Jerry Hyman - trombone, recorder

Album Released: December 11, 1968
Audio Fidelity SACD Released: February 10, 2015

Stereo CD and SACD Mastering: Steve Hoffman
4.0 Analog To High Definition DSD Digital Transfer: Gus Skinas, Super Audio Center, Boulder, CO

foobar2000 1.3.2 / Dynamic Range Meter 1.1.0
log date: 2015-02-22 02:36:57

--
Analyzed: Blood, Sweat & Tears / Blood, Sweat & Tears [2014 Audio Fidelity SACD AFZ5 198]
--

DR Peak RMS Duration Track
--
DR12 -4.17 dB -20.18 dB 2:34 01-Variations On A Theme By Erik Satie (1st And 2nd Movements)
DR12 -1.51 dB -17.24 dB 5:09 02-Smiling Phases
DR12 -1.50 dB -17.04 dB 3:09 03-Sometimes In Winter
DR12 -0.18 dB -14.77 dB 3:05 04-More And More
DR13 -2.06 dB -19.43 dB 4:04 05-And When I Die
DR12 -1.71 dB -18.46 dB 6:01 06-God Bless The Child
DR13 -1.64 dB -17.51 dB 4:08 07-Spinning Wheel
DR13 -0.35 dB -17.22 dB 4:18 08-You've Made Me So Very Happy
DR12 -1.27 dB -19.21 dB 11:44 09-Blues - Part II
DR9 -6.48 dB -21.49 dB 1:40 10-Variations On A Theme By Erik Satie (1st Movement)
--

Number of tracks: 10
Official DR value: DR12

Samplerate: 44100 Hz
Channels: 2
Bits per sample: 16
Bitrate: 809 kbps
Codec: FLAC

http://i63.fastpic.ru/big/2015/0224/2f/ceaf852f32c0e606033d8a47b7fda12f.jpg

http://i64.fastpic.ru/big/2015/0224/ab/703cdbe79246cddcce9d6fa01557f0ab.jpg

http://i65.fastpic.ru/big/2015/0224/de/f181c2b203395f39a9d13fff874900de.jpg

DOWNLOAD LINKS:
Buy Premium To Support Me & Get Resumable Support & Max Speed


Links are Interchangeable - No Password - Single Extraction



Ad2

 
 
 
Dear visitor, you went to the site as an unregistered user. We encourage you to register or enter the site under your name.
 
   
 
 (Votes #: 0)