2013Zone For Latest Downloads

 
     
 
Legal Downloads » Music » Nona Hendryx - Nona (1983) [2012, Remastered & Expanded Edition]
Menu
Home Applications
Games Movies
Music TV Shows
Torrents Graphics

Sitemap

RSS
 
Advanced Search
Last News
Site Info
Top Contributors:
  1    supper88 32767
  2    admin 32762
  3    Whisky 10081
  4    Shark_ 8911
  5    creativelivenew 8706
  6    whathesupa 2799
  7    candymypost 840
  8    hvnteam 629
  9    vuong87 3


Articles:
  This Hour: 0
  Today: 0
  This Month: 18
  All Time: 515444


Torrents:
  Today: 0
  Yesterday: 0
  All Time: 156743


Membership:
  Registered Today :0
  This Hour:0
  This Month:0
  Total:14
  Banned:1

{online}
{inform_torrent}
Friend:
Full Download Scripts
Torrent Download
Trend
Trend

Search In Site

Music : Nona Hendryx - Nona (1983) [2012, Remastered & Expanded Edition]
 
http://i59.fastpic.ru/big/2015/0224/ce/3cbec91986246ff891e75c4c5c4e11ce.jpg

Nona Hendryx - Nona (1983) [2012, Remastered & Expanded Edition]
R&B, Soul/Funk, Pop/Rock | EAC Rip | FLAC, Img+CUE + LOG + Full Scans-600dpi (JPEG) | 77:25 Min | 563,21 Mb
Label: Funkytowngrooves / RCA Records (USA) | Released: 2012, February, 27

"
After a few years doing session work, Hendryx, with help from the band Material, came up with this winner that drops the hard rock of her debut for a more Talking Heads-tinged pop/funk. Although the songwriting could be a little sharper, Hendryx's powerful voice gives the record focus and always commands your attention. Extra musical emphasis provided by Sly Dunbar, Jamaaladeen Tacuma and Nile Rodgers.
"

http://i68.fastpic.ru/big/2015/0224/d4/0d1f96b9f667dd5ac990a6406143e5d4.jpg

http://i57.fastpic.ru/big/2015/0224/50/4eb11a9f850df5304aa568c1b1e6d950.jpg


Release of the album: 1983 [LP RCA, Cat.# AFL1-4565, USA]
Release of this CD: 2012, February, 27 [CD Funkytowngrooves (USA), Cat.# FTG-273 / EAN: 0851903003182]
℗ 2012 Sony Music Entertainment, This compilation © 2012 Funkytowngrooves USA
Distributed by Funkytowngrooves USA.
Manufactured by Sony Music Entertainment

Note: Remastered from the Original Master Tapes with 7 Bonus Tracks

Producers: Material and Nona Hendryx
Photography By [Cover] - Uwe Ommer
Photography By nner Sleeve - Nick Sangiamo

Backing Vocals - B.J. Nelson, Carol Popek, Dolette McDonald, Kenni Hairston, Kevin Owens, Michelle Cobbs, Nona Hendryx, Patti LaBelle


Tracklist:

01. B-Boys (05:30)
(Carmine Rojas, Juan Maciel, Nona Hendryx, Ronnie Drayton, Trevor Gale)
02. Living On The Border (05:34)
(Nona Hendryx, Ronnie Drayton)
03. Keep It Confidential (05:53)
(Ellen Foley, Ellie Greenwich, Jeffrey Bradford Kent)
04. Design For Living (05:23)
(Carole Pope, Kevan Staples, Nona Hendryx)
05. Transformation (05:32)
(Carole Pope, Kevan Staples, Nona Hendryx)
06. Run For Cover (04:34)
(James Allington, Nona Hendryx, Ronnie Drayton)
07. Steady Action (05:16)
(James Allington, Juan Maciel, Kevin Fullen, Michael Allison, Nona Hendryx)
08. Dummy Up (04:31)
(Nona Hendryx)

Bonus Tracks:

09. B-Boys (12" Version) (06:35)
(Carmine Rojas, Juan Maciel, Nona Hendryx, Ronnie Drayton, Trevor Gale)
10. B-Boys (Instrumental) (06:54)
(Carmine Rojas, Juan Maciel, Nona Hendryx, Ronnie Drayton, Trevor Gale)
11. B-Boys (Single Version) (04:05)
(Carmine Rojas, Juan Maciel, Nona Hendryx, Ronnie Drayton, Trevor Gale)
12. Keep It Confidential (Special Extended Club Version) (05:54)
(Ellie Greenwich, Jeffrey Bradford Kent, Kevin Fullen)
13. Keep It Confidential (Single Version) (03:49)
(Ellie Greenwich, Jeffrey Bradford Kent, Kevin Fullen)
14. Steady Action (Single Version) (03:55)
(James Allington, Juan Maciel, Kevin Fullen, Michael Allison, Nona Hendryx)
15. Transformation (Single Version) (04:00)
(Carole Pope, Kevan Staples, Nona Hendryx)

Exact Audio Copy V1.0 beta 3 from 29. August 2011

EAC extraction logfile from 30. August 2013, 1:36

Nona Hendryx / Nona (Remastered & Expanded)

Used drive : ATAPI DVD DW 8X16X8X16 Adapter: 0 ID: 2

Read mode : Secure
Utilize accurate stream : Yes
Defeat audio cache : Yes
Make use of C2 pointers : No

Read offset correction : 618
Overread into Lead-In and Lead-Out : No
Fill up missing offset samples with silence : Yes
Delete leading and trailing silent blocks : No
Null samples used in CRC calculations : Yes
Used interface
: Native Win32 interface for Win NT & 2000

Used output format : Internal WAV Routines
Sample format : 44.100 Hz; 16 Bit; Stereo

TOC of the extracted CD Track | Start | Length | Start sector | End sector
-----------
1 | 0:00.43 | 5:30.68 | 43 | 24860
2 | 5:31.36 | 5:34.44 | 24861 | 49954
3 | 11:06.05 | 5:53.43 | 49955 | 76472
4 | 16:59.48 | 5:23.52 | 76473 | 100749
5 | 22:23.25 | 5:32.18 | 100750 | 125667
6 | 27:55.43 | 4:34.11 | 125668 | 146228
7 | 32:29.54 | 5:16.28 | 146229 | 169956
8 | 37:46.07 | 4:31.06 | 169957 | 190287
9 | 42:17.13 | 6:35.30 | 190288 | 219942
10 | 48:52.43 | 6:54.27 | 219943 | 251019
11 | 55:46.70 | 4:05.34 | 251020 | 269428
12 | 59:52.29 | 5:54.11 | 269429 | 295989
13 | 65:46.40 | 3:49.69 | 295990 | 313233
14 | 69:36.34 | 3:55.54 | 313234 | 330912
15 | 73:32.13 | 4:00.05 | 330913 | 348917

Range status and errors

Selected range Filename C:\BlondStyle\Nona Hendryx - Nona.wav Peak level 100.0 %
Extraction speed 1.6 X
Range quality 100.0 %
Test CRC 1A5E6F50
Copy CRC 1A5E6F50
Copy OK

No errors occurred


AccurateRip summary

Track 1 accurately ripped (confidence 4) [10F28396] (AR v2)
Track 2 accurately ripped (confidence 4) [91049503] (AR v2)
Track 3 accurately ripped (confidence 4) [9A082E6D] (AR v2)
Track 4 accurately ripped (confidence 4) [0A46BC62] (AR v2)
Track 5 accurately ripped (confidence 4) [368FF09E] (AR v2)
Track 6 accurately ripped (confidence 4) [935CE60F] (AR v2)
Track 7 accurately ripped (confidence 4) [8FE5AD0E] (AR v2)
Track 8 accurately ripped (confidence 4) [9F7C61AA] (AR v2)
Track 9 accurately ripped (confidence 4) [3C991996] (AR v2)
Track 10 accurately ripped (confidence 4) [05C4EE5E] (AR v2)
Track 11 accurately ripped (confidence 4) [F33D4FB9] (AR v2)
Track 12 accurately ripped (confidence 4) [E79C82EF] (AR v2)
Track 13 accurately ripped (confidence 4) [2BF2D19F] (AR v2)
Track 14 accurately ripped (confidence 4) [5F7F70C6] (AR v2)
Track 15 accurately ripped (confidence 4) [E9EB06FE] (AR v2)

All tracks accurately ripped

End of status report

==== Log checksum CE517EBD782FF3581F7A63BC6F101C9B0AE3C97187A35984109CE30214124D9C ====

-
Statistics for: Nona Hendryx - Nona.wav
Number of Samples: 205163784
- left right

Peak value: -0.05 dB --- over
Avg RMS: -12.65 dB --- -11.95 dB
DR channel: 10.28 dB --- 9.69 dB
-

Official DR value: DR10
=
DOWNLOAD LINKS:
Buy Premium To Support Me & Get Resumable Support & Max Speed


Links are Interchangeable - No Password - Single Extraction

Nona Hendryx - Nona (1983) [2012, Remastered & Expanded Edition] Fast Download



 
 
 
Dear visitor, you went to the site as an unregistered user. We encourage you to register or enter the site under your name.
 
   
 
 (Votes #: 0)