2013Zone For Latest Downloads

 
     
 
Legal Downloads » Music » The Band - Rock Of Ages: The Band In Concert (1972) [2014, Universal Music Japan, UICY-40118]
Menu
Home Applications
Games Movies
Music TV Shows
Torrents Graphics

Sitemap

RSS
 
Advanced Search
Last News
Site Info
Top Contributors:
  1    supper88 32766
  2    admin 32752
  3    Whisky 10080
  4    Shark_ 8911
  5    creativelivenew 8706
  6    whathesupa 2799
  7    candymypost 840
  8    hvnteam 629
  9    vuong87 3


Articles:
  This Hour: 0
  Today: 0
  This Month: 16
  All Time: 515440


Torrents:
  Today: 0
  Yesterday: 0
  All Time: 156715


Membership:
  Registered Today :0
  This Hour:0
  This Month:0
  Total:14
  Banned:1

{online}
{inform_torrent}
Friend:
Full Download Scripts
Torrent Download
Trend
Trend

Search In Site

Music : The Band - Rock Of Ages: The Band In Concert (1972) [2014, Universal Music Japan, UICY-40118]
 
http://i58.fastpic.ru/big/2015/0306/4c/cf682ac3d5ddd8609810bbf697e7d64c.jpg

The Band - Rock Of Ages: The Band In Concert (1972)
EAC | Flac(Image) + Cue + Log & MP3 CBR 320Kbps
Universal Music Japan, UICY-40118 | ~ 436 or 188 Mb | Scans(600dpi, jpg) -> 264 Mb
Folk Rock / Country Rock

"Released on the heels of the stilted, static Cahoots, the double-album Rock of Ages occupies a curious yet important place in Band history. Recorded at a spectacular New Years Eve 1971 gig, the show and album were intended to be a farewell of sorts before the Band took an extended break in 1972, but it turned out to be a last hurrah in many different ways, closing the chapter on the first stage of their career, when they were among the biggest and most important rock & roll bands..."

The Band - Rock Of Ages: The Band In Concert (1972):

http://i67.fastpic.ru/big/2015/0306/f0/58186e86c130dcfb6172df85c45558f0.jpg

Tracklist:

01. Introduction
02. Don't Do It
03. King Harvest (Has Surely Come)
04. Caledonia Mission
05. Get Up Jake
06. The W.S. Walcott Medicine Show
07. Stage Fright
08. The Night They Drove Old Dixie Down
09. Across The Great Divide
10. This Wheel's On Fire
11. Rag Mama Rag
12. The Weight
13 The Shape I'm In
14. Unfaithful Servant
15. Life Is A Carnival
16. The Genetic Method
17. Chest Fever
18. (I Don't Want To) Hang Up My Rock And Roll Shoes

Exact Audio Copy V1.0 beta 4 from 7. December 2014

EAC extraction logfile from 25. February 2015, 11:08

The Band / Rock Of Ages PT-SHM

Used drive : PLEXTOR BD-R PX-B950SA Adapter: 1 ID: 1

Read mode : Secure
Utilize accurate stream : Yes
Defeat audio cache : Yes
Make use of C2 pointers : No

Read offset correction : 6
Overread into Lead-In and Lead-Out : No
Fill up missing offset samples with silence : Yes
Delete leading and trailing silent blocks : No
Null samples used in CRC calculations : Yes
Used interface
: Native Win32 interface for Win NT & 2000

Used output format : Internal WAV Routines
Sample format : 44.100 Hz; 16 Bit; Stereo

TOC of the extracted CD Track | Start | Length | Start sector | End sector
-----------
1 | 0:00.00 | 0:58.28 | 0 | 4377
2 | 0:58.28 | 4:59.52 | 4378 | 26854
3 | 5:58.05 | 4:04.50 | 26855 | 45204
4 | 10:02.55 | 3:38.40 | 45205 | 61594
5 | 13:41.20 | 3:33.28 | 61595 | 77597
6 | 17:14.48 | 3:52.67 | 77598 | 95064
7 | 21:07.40 | 4:37.50 | 95065 | 115889
8 | 25:45.15 | 4:34.58 | 115890 | 136497
9 | 30:19.73 | 3:58.70 | 136498 | 154417
10 | 34:18.68 | 4:07.32 | 154418 | 172974
11 | 38:26.25 | 4:35.40 | 172975 | 193639
12 | 43:01.65 | 5:32.45 | 193640 | 218584
13 | 48:34.35 | 4:14.20 | 218585 | 237654
14 | 52:48.55 | 4:48.20 | 237655 | 259274
15 | 57:37.00 | 4:22.43 | 259275 | 278967
16 | 61:59.43 | 7:47.30 | 278968 | 314022
17 | 69:46.73 | 5:25.15 | 314023 | 338412
18 | 75:12.13 | 4:28.55 | 338413 | 358567

Range status and errors

Selected range Filename C:\Users\Meijin\Desktop\ALLexxess\The Band\1972 Rock Of Ages (Mini LP PT-SHM Universal Japan 2015)\The Band - Rock Of Ages PT-SHM.wav Peak level 98.6 %
Extraction speed 8.5 X
Range quality 100.0 %
Test CRC E07277C8
Copy CRC E07277C8
Copy OK

No errors occurred


AccurateRip summary

Track 1 not present in database
Track 2 not present in database
Track 3 not present in database
Track 4 not present in database
Track 5 not present in database
Track 6 not present in database
Track 7 not present in database
Track 8 not present in database
Track 9 not present in database
Track 10 not present in database
Track 11 not present in database
Track 12 not present in database
Track 13 not present in database
Track 14 not present in database
Track 15 not present in database
Track 16 not present in database
Track 17 not present in database
Track 18 not present in database

None of the tracks are present in the AccurateRip database

End of status report

---- CUETools DB Plugin V2.1.4

[CTDB TOCID: 8kpSo7eoe5Wwidtt.dK5KrMEcWY-] disk not present in database
Submit result: 8kpSo7eoe5Wwidtt.dK5KrMEcWY- has been uploaded

==== Log checksum 6F87ACE7ABF0F9DD7EB45419B6BF22FE3CC7DE5713D4166BC05291E8BC764C4E ====

foobar2000 1.2.9 / Dynamic Range Meter 1.1.1
log date: 2015-03-04 14:31:24

--
Analyzed: The Band / Rock Of Ages PT-SHM
--

DR Peak RMS Duration Track
--
DR15 -7.98 dB -30.34 dB 0:58 01-Introduction
DR15 -0.17 dB -17.88 dB 5:00 02-Don't Do It
DR15 -1.07 dB -19.29 dB 4:05 03-King Harvest (Has Surely Come)
DR15 -1.74 dB -19.37 dB 3:39 04-Caledonia Mission
DR14 -0.31 dB -17.52 dB 3:33 05-Get Up Jake
DR15 -0.78 dB -17.64 dB 3:53 06-The W.S. Walcott Medicine Show
DR13 -1.46 dB -17.23 dB 4:38 07-Stage Fright
DR14 -0.15 dB -16.62 dB 4:35 08-The Night They Drove Old Dixie Down
DR15 -0.12 dB -17.60 dB 3:59 09-Across The Great Divide
DR15 -0.32 dB -16.72 dB 4:07 10-This Wheel's On Fire
DR13 -1.29 dB -17.42 dB 4:36 11-Rag Mama Rag
DR15 -0.72 dB -18.20 dB 5:33 12-The Weight
DR14 -1.03 dB -17.53 dB 4:14 13-The Shape I'm In
DR14 -0.98 dB -18.34 dB 4:48 14-Unfaithful Servant
DR14 -0.29 dB -16.64 dB 4:23 15-Life Is A Carnival
DR12 -4.78 dB -20.12 dB 7:47 16-The Genetic Method
DR14 -0.82 dB -17.00 dB 5:25 17-Chest Fever
DR14 -0.15 dB -16.61 dB 4:29 18-(I Don't Want To) Hang Up My Rock And Roll Shoes
--

Number of tracks: 18
Official DR value: DR14

Samplerate: 44100 Hz
Channels: 2
Bits per sample: 16
Bitrate: 741 kbps
Codec: FLAC

[CUETools log; Date: 04.03.2015 14:31:38; Version: 2.1.4]
[CTDB TOCID: 8kpSo7eoe5Wwidtt.dK5KrMEcWY-] found.
Track | CTDB Status
1 | (1/1) Accurately ripped
2 | (1/1) Accurately ripped
3 | (1/1) Accurately ripped
4 | (1/1) Accurately ripped
5 | (1/1) Accurately ripped
6 | (1/1) Accurately ripped
7 | (1/1) Accurately ripped
8 | (1/1) Accurately ripped
9 | (1/1) Accurately ripped
10 | (1/1) Accurately ripped
11 | (1/1) Accurately ripped
12 | (1/1) Accurately ripped
13 | (1/1) Accurately ripped
14 | (1/1) Accurately ripped
15 | (1/1) Accurately ripped
16 | (1/1) Accurately ripped
17 | (1/1) Accurately ripped
18 | (1/1) Accurately ripped
[AccurateRip ID: 002f24c4-0286f678-ea12ac12] disk not present in database.

Track Peak [ CRC32 ] [W/O NULL] [ LOG ]
-- 98,6 [E07277C8] [7D7E0719] CRC32
01 39,8 [6235D448] [62543F07]
02 98,0 [0A669AFF] [EF818E28]
03 88,4 [D865026D] [C20768F8]
04 81,8 [AAA62091] 9F38CF9
05 96,4 [5F9101C4] [4151DA0F]
06 91,4 [E34BC568] [1F3E583F]
07 84,5 [417C7C7B] [02D2A6E3]
08 98,2 [098E60F5] [23142971]
09 98,6 [883B999E] [49EDA4BC]
10 96,4 [FEBC7375] [CE4FE3CD]
11 86,2 [51AE7A06] [1D183495]
12 92,0 [5BD64EA0] [4948E1E1]
13 88,7 [FA070367] [89BB0380]
14 89,3 [49D48EE9] [F1C74678]
15 96,6 3A7B3CC [2DA15296]
16 57,6 [E2B8C874] [AAD50C12]
17 90,9 [F8A19606] [1D277C91]
18 98,2 [5A7AC5E9] [4D11C7DC]

http://i67.fastpic.ru/big/2015/0306/52/e99ff5775c7b0bb4b987389229de6c52.jpg

All thanks go to ALLexxess
DOWNLOAD LINKS:
Buy Premium To Support Me & Get Resumable Support & Max Speed


Links are Interchangeable - No Password - Single Extraction

The Band - Rock Of Ages: The Band In Concert (1972) [2014, Universal Music Japan, UICY-40118] Fast Download



 
 
 
Dear visitor, you went to the site as an unregistered user. We encourage you to register or enter the site under your name.
 
   
 
 (Votes #: 0)