2013Zone For Latest Downloads

 
     
 
Legal Downloads » Music » Betty Wright - Danger High Voltage (1974) & This Time For Real (1977) [1998, Reissue]
Menu
Home Applications
Games Movies
Music TV Shows
Torrents Graphics

Sitemap

RSS
 
Advanced Search
Last News
Site Info
Top Contributors:
  1    supper88 32766
  2    admin 32747
  3    Whisky 10080
  4    Shark_ 8911
  5    creativelivenew 8706
  6    whathesupa 2799
  7    candymypost 840
  8    hvnteam 629
  9    vuong87 3


Articles:
  This Hour: 0
  Today: 0
  This Month: 16
  All Time: 515460


Torrents:
  Today: 0
  Yesterday: 0
  All Time: 156710


Membership:
  Registered Today :0
  This Hour:0
  This Month:0
  Total:14
  Banned:1

{online}
{inform_torrent}
Friend:
Full Download Scripts
Torrent Download
Trend
Trend

Search In Site

Music : Betty Wright - Danger High Voltage (1974) & This Time For Real (1977) [1998, Reissue]
 
http://i59.fastpic.ru/big/2015/0306/14/1fa5d6d157fe511d350ffd988821d114.jpg

Betty Wright - Danger High Voltage (1974) & This Time For Real (1977) [1998, Reissue]
R&B, Soul/Funk, Disco | EAC Rip | FLAC, Img+CUE + LOG + Full Scans-600dpi (JPEG) | 75:15 Min | 477,05 Mb
Label: Westside Records / EMI Records (UK) | Released: 1998, October, 13

"
2 of Betty Wright's harder to find albums on one CD! Both are from her classic Alston years, and were recorded in the mid-70's with the help of Miami soul giants like Willie Clarke, Clarence Reid, and Steve Alaimo. The set doesn't include "Clean Up Woman", but it's got a lot of other nice ones in the same tight soul vein - including "Brick Grits", "Room At The Top", "If You Abuse My Love", "Show Your Girl", "Come On Up", "That Man Of Mine", and her classic "Tonight's The Night". 18 cuts in all.
"

http://i59.fastpic.ru/big/2015/0306/36/8b89ecec8a65d3c2c8657cc56f478236.jpg

http://i66.fastpic.ru/big/2015/0306/15/677269a63406bf3969f2ced90a485715.jpg


Release of those albums: "Danger High Voltage" - 1974 [LP Alston Records, Cat.# A-4400, USA] / "This Time For Real" - 1977 [LP Alston Records, Cat.# 4406, USA]
Release of this CD: 1998, October, 13 [CD Westside Records (UK), Cat.# WESM 583 / UPC: 5032698015832]
Westside Records, a division of Music Collection International Ltd. A VCI Pic Company
℗1974, ℗1977 EMI Records (UK)
℗ & © 1998 Westside

Produced by: Willie Clarke ("Danger High Voltage") / Steve Alaimo ("This Time For Real")

Tracklist:

"Danger High Voltage" (1974):

01. Everybody Was Rockin' (03:53)
(C. Reid / W. Clarke)
02. Love Don't Grow On A Love Tree (03:02)
(H. W. Casey / B. Wright / W. Clarke)
03. Show You Girl (02:39)
(H. W. Casey / R. Finch)
04. Come On Up (03:00)
(F. Cavaliero)
05. Shoorah! Shoorah! (02:55)
(A. Toussaint)
06. Where Is The Love (04:01)
(H. W. Casey / R. Finch)
07. That's When I'll Stop Loving You (03:25)
(B. Kennedy)
08. Don't Thank Me Baby, Thank Yourself (02:57)
(P. Sawer / G. Jones)
09. Tonight Is The Night (04:03)
(B. Wright / W. Clarke)

"This Time For Real" (1977):

01. That Man Of Mine (03:25)
(B. Wright)
02. Wonderful Baby (03:42)
(B. Wright)
03. If You Abuse My Love (You'll Lose My Love) (04:45)
(C. Reid)
04. You Can't See For Lookin' (04:58)
(W. Clarke)
05. A Sometime Kind Of Thing (03:28)
(E. Kratish / B. Wright / C. Cropper)
06. Brick Grits (04:05)
(B. Wright / J. McCray)
07. Sweet (03:11)
(B. Wright / C. Cropper / R. Velasquez)
08. Give Me More, More, More (03:58)
(C. Reid)
09. Room At The Top (03:48)
(B. Wright)

Exact Audio Copy V1.0 beta 3 from 29. August 2011

EAC extraction logfile from 23. June 2013, 20:05

Betty Wright / Danger High Voltage (1974) & This Time For Real (1977)

Used drive : ATAPI DVD DW 8X16X8X16 Adapter: 0 ID: 2

Read mode : Secure
Utilize accurate stream : Yes
Defeat audio cache : Yes
Make use of C2 pointers : No

Read offset correction : 618
Overread into Lead-In and Lead-Out : No
Fill up missing offset samples with silence : Yes
Delete leading and trailing silent blocks : No
Null samples used in CRC calculations : Yes
Used interface
: Native Win32 interface for Win NT & 2000

Used output format : Internal WAV Routines
Sample format : 44.100 Hz; 16 Bit; Stereo

TOC of the extracted CD Track | Start | Length | Start sector | End sector
-----------
1 | 0:00.00 | 3:53.15 | 0 | 17489
2 | 3:53.15 | 3:02.45 | 17490 | 31184
3 | 6:55.60 | 2:39.22 | 31185 | 43131
4 | 9:35.07 | 3:00.43 | 43132 | 56674
5 | 12:35.50 | 2:55.30 | 56675 | 69829
6 | 15:31.05 | 4:01.32 | 69830 | 87936
7 | 19:32.37 | 3:25.38 | 87937 | 103349
8 | 22:58.00 | 2:57.12 | 103350 | 116636
9 | 25:55.12 | 4:03.25 | 116637 | 134886
10 | 29:58.37 | 3:25.65 | 134887 | 150326
11 | 33:24.27 | 3:42.00 | 150327 | 166976
12 | 37:06.27 | 4:45.65 | 166977 | 188416
13 | 41:52.17 | 4:58.40 | 188417 | 210806
14 | 46:50.57 | 3:28.65 | 210807 | 226471
15 | 50:19.47 | 4:05.53 | 226472 | 244899
16 | 54:25.25 | 3:11.67 | 244900 | 259291
17 | 57:37.17 | 3:58.48 | 259292 | 277189
18 | 61:35.65 | 3:48.00 | 277190 | 294289

Range status and errors

Selected range Filename C:\BlondStyle\Danger High Voltage (1974) & This Time For Real (1977).wav Peak level 100.0 %
Extraction speed 8.1 X
Range quality 100.0 %
Test CRC B05D9A1F
Copy CRC B05D9A1F
Copy OK

No errors occurred


AccurateRip summary

Track 1 accurately ripped (confidence 1) [2192B28E] (AR v1)
Track 2 accurately ripped (confidence 1) [F41BBC65] (AR v1)
Track 3 accurately ripped (confidence 1) [ECF7A969] (AR v1)
Track 4 accurately ripped (confidence 1) 741F3B7 (AR v1)
Track 5 accurately ripped (confidence 1) [20CD044E] (AR v1)
Track 6 accurately ripped (confidence 1) [6AEDC6EF] (AR v1)
Track 7 accurately ripped (confidence 1) [308A0C15] (AR v1)
Track 8 accurately ripped (confidence 1) [1AE90032] (AR v1)
Track 9 accurately ripped (confidence 1) [60D19BA8] (AR v1)
Track 10 accurately ripped (confidence 1) [E401B18A] (AR v1)
Track 11 accurately ripped (confidence 1) [8BC2D270] (AR v1)
Track 12 accurately ripped (confidence 1) [2BE21518] (AR v1)
Track 13 accurately ripped (confidence 1) [2E4C2A65] (AR v1)
Track 14 accurately ripped (confidence 1) [C2088B31] (AR v1)
Track 15 accurately ripped (confidence 1) [3B170DAF] (AR v1)
Track 16 accurately ripped (confidence 1) [C5629CB6] (AR v1)
Track 17 accurately ripped (confidence 1) [696E408E] (AR v1)
Track 18 accurately ripped (confidence 1) [CD0AA7B4] (AR v1)

All tracks accurately ripped

End of status report

==== Log checksum A043C4BE074D157C1EEAF8D010BAF137E770B16DF3FFE584788A9BDE7503A559 ====

[Disc ID: 0028e3f3-022878cb-f60f5312]
Track [ CRC ] Status
01 [2192b28e] (01/01) Accurately ripped as in pressing(s) #1
02 [f41bbc65] (01/01) Accurately ripped as in pressing(s) #1
03 [ecf7a969] (01/01) Accurately ripped as in pressing(s) #1
04 741f3b7 (01/01) Accurately ripped as in pressing(s) #1
05 [20cd044e] (01/01) Accurately ripped as in pressing(s) #1
06 [6aedc6ef] (01/01) Accurately ripped as in pressing(s) #1
07 [308a0c15] (01/01) Accurately ripped as in pressing(s) #1
08 [1ae90032] (01/01) Accurately ripped as in pressing(s) #1
09 [60d19ba8] (01/01) Accurately ripped as in pressing(s) #1
10 [e401b18a] (01/01) Accurately ripped as in pressing(s) #1
11 [8bc2d270] (01/01) Accurately ripped as in pressing(s) #1
12 [2be21518] (01/01) Accurately ripped as in pressing(s) #1
13 [2e4c2a65] (01/01) Accurately ripped as in pressing(s) #1
14 [c2088b31] (01/01) Accurately ripped as in pressing(s) #1
15 [3b170daf] (01/01) Accurately ripped as in pressing(s) #1
16 [c5629cb6] (01/01) Accurately ripped as in pressing(s) #1
17 [696e408e] (01/01) Accurately ripped as in pressing(s) #1
18 [cd0aa7b4] (01/01) Accurately ripped as in pressing(s) #1

-
Statistics for: Danger High Voltage (1974) & This Time For Real (1977).wav
Number of Samples: 173042520
- left right

Peak value: -0.01 dB --- over
Avg RMS: -10.88 dB --- -10.47 dB
DR channel: 8.83 dB --- 8.34 dB
-

Official DR value: DR9
=
DOWNLOAD LINKS:
Buy Premium To Support Me & Get Resumable Support & Max Speed


Links are Interchangeable - No Password - Single Extraction

Betty Wright - Danger High Voltage (1974) & This Time For Real (1977) [1998, Reissue] Fast Download



 
 
 
Dear visitor, you went to the site as an unregistered user. We encourage you to register or enter the site under your name.
 
   
 
 (Votes #: 0)