2013Zone For Latest Downloads

 
     
 
Legal Downloads » Music » Russ Ballard - The Fire Still Burns (1985)
Menu
Home Applications
Games Movies
Music TV Shows
Torrents Graphics

Sitemap

RSS
 
Advanced Search
Last News
Site Info
Top Contributors:
  1    supper88 32766
  2    admin 32671
  3    Whisky 10080
  4    Shark_ 8911
  5    creativelivenew 8706
  6    whathesupa 2799
  7    candymypost 840
  8    hvnteam 629
  9    vuong87 3


Articles:
  This Hour: 0
  Today: 0
  This Month: 58
  All Time: 515616


Torrents:
  Today: 0
  Yesterday: 0
  All Time: 156702


Membership:
  Registered Today :0
  This Hour:0
  This Month:0
  Total:14
  Banned:1

{online}
{inform_torrent}
Friend:
We Recomend
Trend
Trend
Ad1

Search In Site

Music : Russ Ballard - The Fire Still Burns (1985)
 
http://i65.fastpic.ru/big/2015/0314/d2/e11bb0e135327b7fe4e866bfd6c0f8d2.jpg

Russ Ballard - The Fire Still Burns (1985)
EAC Rip | FLAC: Image+Cue+Log | 267 Mb | MP3 CBR 320 kbps | 103 Mb | Scans | Time: 39:10
Genre: Rock, Pop Rock | Label: EMI USA/Capitol Records | Cat.№: CDP 538/7 93056 2

"Fine follow up to the previous album. Same style, same standard. Also "Your Time Is Gonna Come" had considerable commercial potential. "The Fire Still Burns," the title track of his 1985 album attained No. 15 on the Hot Mainstream Rock Tracks chart."



Track Listing

01. Once A Rebel (05:32)
02. The Omen (04:30)
03. Hey Bernadette (05:47)
04. Searching (06:09)
05. Time (01:52)
06. Your Time Is Gonna Come (04:39)
07. Dream On (05:01)
08. The Fire Still Burns (05:36)

Produced by Russ Ballard & John Stanley

Musicians

* Russ Ballard: keyboards, guitars, bass & vocals
* Stuart Elliott & Mike Richardson: drums
* Peter van Hooke & Russ Ballard: electronic drums
* Mo Foster: bass

Exact Audio Copy V1.0 beta 3 from 29. August 2011

EAC extraction logfile from 1. January 2014, 2:49

Russ Ballard / The Fire Still Burns

Used drive : Optiarc DVD RW AD-7201S Adapter: 2 ID: 0

Read mode : Secure
Utilize accurate stream : Yes
Defeat audio cache : Yes
Make use of C2 pointers : No

Read offset correction

: 48
Overread into Lead-In and Lead-Out : No
Fill up missing offset samples with silence : Yes
Delete leading and trailing silent blocks : No
Null samples used in CRC calculations : Yes
Used interface
: Native Win32 interface for Win NT & 2000

Used output format : Internal WAV Routines
Sample format : 44.100 Hz; 16 Bit; Stereo

TOC of the extracted CD Track | Start | Length | Start sector | End sector
-----------
1 | 0:00.33 | 5:32.35 | 33 | 24967
2 | 5:32.68 | 4:29.70 | 24968 | 45212
3 | 10:02.63 | 5:47.52 | 45213 | 71289
4 | 15:50.40 | 6:09.35 | 71290 | 98999
5 | 22:00.00 | 1:52.43 | 99000 | 107442
6 | 23:52.43 | 4:39.32 | 107443 | 128399
7 | 28:32.00 | 5:01.65 | 128400 | 151039
8 | 33:33.65 | 5:36.65 | 151040 | 176304

Range status and errors

Selected range Filename D:\Russ Ballard - The Fire Still Burns.wav Peak level 100.0 %
Extraction speed 3.8 X
Range quality 100.0 %
Copy CRC EE39DBB7
Copy OK

No errors occurred


AccurateRip summary

Track 1 cannot be verified as accurate (confidence 19) [0F442721], AccurateRip returned [EDA937FC] (AR v2)
Track 2 cannot be verified as accurate (confidence 19) [4623C051], AccurateRip returned [9FBD203F] (AR v2)
Track 3 cannot be verified as accurate (confidence 19) [F092135E], AccurateRip returned [9E9EB47D] (AR v2)
Track 4 cannot be verified as accurate (confidence 20) [822ACBA5], AccurateRip returned [E1F0F11F] (AR v2)
Track 5 cannot be verified as accurate (confidence 19) [6AD7F50C], AccurateRip returned [273D8022] (AR v2)
Track 6 cannot be verified as accurate (confidence 20) [AD49E0D5], AccurateRip returned [EF64C813] (AR v2)
Track 7 cannot be verified as accurate (confidence 20) [0579CA59], AccurateRip returned [5AB18874] (AR v2)
Track 8 cannot be verified as accurate (confidence 19) [530DEAF9], AccurateRip returned [7095F606] (AR v2)

No tracks could be verified as accurate
You may have a different pressing from the one(s) in the database

End of status report

==== Log checksum 766591270A21C096C26A7E4C9F9E789A110CF3136A2F1C983C4D04909BC650B3 ====

Many thanks to the original uploader: labanov
DOWNLOAD LINKS:
Buy Premium To Support Me & Get Resumable Support & Max Speed


Links are Interchangeable - No Password - Single Extraction

Russ Ballard - The Fire Still Burns (1985) Fast Download


Ad2

 
 
 
Dear visitor, you went to the site as an unregistered user. We encourage you to register or enter the site under your name.
 
   
 
 (Votes #: 0)