2013Zone For Latest Downloads

 
     
 
Legal Downloads » Music » Bob Marley - Gold 1967-1972 (2005)
Menu
Home Applications
Games Movies
Music TV Shows
Torrents Graphics

Sitemap

RSS
 
Advanced Search
Last News
Site Info
Top Contributors:
  1    supper88 32766
  2    admin 32671
  3    Whisky 10080
  4    Shark_ 8911
  5    creativelivenew 8706
  6    whathesupa 2799
  7    candymypost 840
  8    hvnteam 629
  9    vuong87 3


Articles:
  This Hour: 0
  Today: 0
  This Month: 40
  All Time: 515636


Torrents:
  Today: 0
  Yesterday: 0
  All Time: 156702


Membership:
  Registered Today :0
  This Hour:0
  This Month:0
  Total:14
  Banned:1

{online}
{inform_torrent}
Friend:
We Recomend
Trend
Trend

Search In Site

Music : Bob Marley - Gold 1967-1972 (2005)
 
http://i64.fastpic.ru/big/2015/0315/da/6b6ffba32c5dfccb9f3849341458d3da.jpg

Bob Marley - Gold 1967-1972 (2005)
2CD | EAC Rip | FLAC (Img) + Cue + Log ~ 551 Mb | MP3 CBR320 ~ 248 Mb
Scans (JPG, 600 dpi) ~ 36 Mb | RAR 5% Recovery
Reggae | Universal #0602498737071

"Two CD 34 track compilation by Jamaica's best known son, whose fame has grown to enormous proportions since his death over 20 years ago. Reggae has never seen anyone quite like him and probably never will again. Like Elvis, Lennon and other music legends, his legacy continues to reach out and touch the listener with a power that is hard to describe. This collection features the best of his early years before he finally broke through and became a global superstar. Includes 'Freedom Time', 'How Many Times', 'Mellow Mood', 'Small Axe', 'Feel Alright', 'African Herbsman', 'Kaya', 'Lively Up Yourself' and many more."

Website

Wiki
***************

http://i68.fastpic.ru/big/2015/0315/95/9c27d277855906e783980e33fcd66295.jpg

Track List CD 1:

01. Freedom Time [02:48]
02. Mellow Mood [02:38]
03. Nice Time [02:48]
04. This Train (BWLV) (Trad) [03:38]
05. Bend Down Low [03:30]
06. Dem A Fi Get A Beatin' (PTLV) (PT) [01:50]
07. How Many Times [03:06]
08. Music Gonna Teach (Music Lesson) [03:03]
09. Selassie Is The Chapel (AG) [03:53]
10. What Goes Around Comes Around [04:16]
11. Feel Alright [02:32]
12. Duppy Conqueror [03:51]
13. Four Hundred Years (PTLV) (PT/LP) [02:33]
14. Go Tell It To The Mountain [03:14]
15. High Tide Or Low Tide [04:08]
16. Put It On [03:34]
17. Small Axe [04:00]

X Lossless Decoder version 20111214 (138.1)

XLD extraction logfile from 2012-01-11 00:10:35 +0200

Bob Marley & The Wailers / 1967-1972 Gold CD1

Used drive : MATSHITA DVD-R UJ-898 (revision HC09)

Ripper mode : XLD Secure Ripper
Disable audio cache : OK for the drive with a cache less than 1375KiB
Make use of C2 pointers : NO
Read offset correction : 102
Max retry count : 100
Gap status : Analyzed, Appended

TOC of the extracted CD
Track | Start | Length | Start sector | End sector
-----------
1 | 00:00:00 | 02:47:11 | 0 | 12535
2 | 02:47:11 | 02:37:23 | 12536 | 24333
3 | 05:24:34 | 02:47:54 | 24334 | 36912
4 | 08:12:13 | 03:37:46 | 36913 | 53233
5 | 11:49:59 | 03:29:48 | 53234 | 68956
6 | 15:19:32 | 01:49:62 | 68957 | 77193
7 | 17:09:19 | 03:05:66 | 77194 | 91134
8 | 20:15:10 | 03:02:40 | 91135 | 104824
9 | 23:17:50 | 03:52:48 | 104825 | 122272
10 | 27:10:23 | 04:15:48 | 122273 | 141445
11 | 31:25:71 | 02:31:08 | 141446 | 152778
12 | 33:57:04 | 03:50:03 | 152779 | 170031
13 | 37:47:07 | 02:32:63 | 170032 | 181494
14 | 40:19:70 | 03:13:60 | 181495 | 196029
15 | 43:33:55 | 04:07:37 | 196030 | 214591
16 | 47:41:17 | 03:33:70 | 214592 | 230636
17 | 51:15:12 | 03:59:35 | 230637 | 248596

List of alternate offset correction values
# | Absolute | Relative | Confidence
------------
1 | 766 | 664 | 9

AccurateRip Summary
Track 01 : OK (confidence 8, with different offset)
Track 02 : OK (confidence 9, with different offset)
Track 03 : OK (confidence 8, with different offset)
Track 04 : OK (confidence 8, with different offset)
Track 05 : OK (confidence 8, with different offset)
Track 06 : OK (confidence 8, with different offset)
Track 07 : OK (confidence 8, with different offset)
Track 08 : OK (confidence 8, with different offset)
Track 09 : OK (confidence 8, with different offset)
Track 10 : OK (confidence 8, with different offset)
Track 11 : OK (confidence 8, with different offset)
Track 12 : OK (confidence 8, with different offset)
Track 13 : OK (confidence 8, with different offset)
Track 14 : OK (confidence 9, with different offset)
Track 15 : OK (confidence 8, with different offset)
Track 16 : OK (confidence 8, with different offset)
Track 17 : OK (confidence 8, with different offset)
->All tracks accurately ripped.

All Tracks
Filename : /Users/macuser/Desktop/Bob Marley (1967-1972)Gold(2006)/01 Bob Marley & The Wailers - 1967-1972 Gold CD1.flac
Album gain : -7.60 dB
Peak : 1.000000
CRC32 hash (test run) : 7F0CDF65
CRC32 hash : 7F0CDF65
CRC32 hash (skip zero) : EC785C6A
Statistics
Read error : 0
Jitter error (maybe fixed) : 0
Retry sector count : 7
Damaged sector count : 0

Track 01
Pre-gap length : 00:02:00 Track gain : -8.96 dB
Peak : 0.999969
CRC32 hash (test run) : F7637DB4
CRC32 hash : F7637DB4
CRC32 hash (skip zero) : 9C9A0A54
AccurateRip signature : 47AEED69
->Accurately ripped! (confidence 8)
(matched with the different offset correction value;
calculated using an additional offset of 664;
the signature after correction is: 95467CB1)
Statistics
Read error : 0
Jitter error (maybe fixed) : 0
Retry sector count : 0
Damaged sector count : 0

Track 02
Pre-gap length : 00:01:12 Track gain : -6.15 dB
Peak : 0.999939
CRC32 hash (test run) : 9EC2A62A
CRC32 hash : 9EC2A62A
CRC32 hash (skip zero) : FA9F7412
AccurateRip signature : ABF2DB21
->Accurately ripped! (confidence 9)
(matched with the different offset correction value;
calculated using an additional offset of 664;
the signature after correction is: 8A4169F1)
Statistics
Read error : 0
Jitter error (maybe fixed) : 0
Retry sector count : 0
Damaged sector count : 0

Track 03
Pre-gap length : 00:02:12 Track gain : -5.85 dB
Peak : 1.000000
CRC32 hash (test run) : 924B78A4
CRC32 hash : 924B78A4
CRC32 hash (skip zero) : 5B94B80C
AccurateRip signature : 7A6D027A
->Accurately ripped! (confidence 8)
(matched with the different offset correction value;
calculated using an additional offset of 664;
the signature after correction is: 219C1B1A)
Statistics
Read error : 0
Jitter error (maybe fixed) : 0
Retry sector count : 0
Damaged sector count : 0

Track 04
Pre-gap length : 00:01:45 Track gain : -6.93 dB
Peak : 0.999939
CRC32 hash (test run) : 01220B6C
CRC32 hash : 01220B6C
CRC32 hash (skip zero) : 1A356412
AccurateRip signature : E8DBB913
->Accurately ripped! (confidence 8)
(matched with the different offset correction value;
calculated using an additional offset of 664;
the signature after correction is: 40BC555B)
Statistics
Read error : 0
Jitter error (maybe fixed) : 0
Retry sector count : 0
Damaged sector count : 0

Track 05
Pre-gap length : 00:01:50 Track gain : -7.93 dB
Peak : 0.994293
CRC32 hash (test run) : 746D3CB7
CRC32 hash : 746D3CB7
CRC32 hash (skip zero) : 1482F671
AccurateRip signature : 917DF646
->Accurately ripped! (confidence 8)
(matched with the different offset correction value;
calculated using an additional offset of 664;
the signature after correction is: C5B791CE)
Statistics
Read error : 0
Jitter error (maybe fixed) : 0
Retry sector count : 0
Damaged sector count : 0

Track 06
Pre-gap length : 00:01:65 Track gain : -5.97 dB
Peak : 0.990479
CRC32 hash (test run) : 259BB17E
CRC32 hash : 259BB17E
CRC32 hash (skip zero) : C10EB626
AccurateRip signature : 048566F4
->Accurately ripped! (confidence 8)
(matched with the different offset correction value;
calculated using an additional offset of 664;
the signature after correction is: 9C32DD74)
Statistics
Read error : 0
Jitter error (maybe fixed) : 0
Retry sector count : 0
Damaged sector count : 0

Track 07
Pre-gap length : 00:02:01 Track gain : -5.44 dB
Peak : 0.850769
CRC32 hash (test run) : 14F5E61D
CRC32 hash : 14F5E61D
CRC32 hash (skip zero) : 449350A5
AccurateRip signature : 8F40632E
->Accurately ripped! (confidence 8)
(matched with the different offset correction value;
calculated using an additional offset of 664;
the signature after correction is: 289E7CDE)
Statistics
Read error : 0
Jitter error (maybe fixed) : 0
Retry sector count : 0
Damaged sector count : 0

Track 08
Pre-gap length : 00:01:74 Track gain : -7.88 dB
Peak : 0.944031
CRC32 hash (test run) : 14E0B278
CRC32 hash : 14E0B278
CRC32 hash (skip zero) : 87E91405
AccurateRip signature : 337A521C
->Accurately ripped! (confidence 8)
(matched with the different offset correction value;
calculated using an additional offset of 664;
the signature after correction is: 0F5BA76C)
Statistics
Read error : 0
Jitter error (maybe fixed) : 0
Retry sector count : 0
Damaged sector count : 0

Track 09
Pre-gap length : 00:01:33 Track gain : -10.03 dB
Peak : 0.993500
CRC32 hash (test run) : F4A55FEF
CRC32 hash : F4A55FEF
CRC32 hash (skip zero) : 58310B11
AccurateRip signature : DC5527B0
->Accurately ripped! (confidence 8)
(matched with the different offset correction value;
calculated using an additional offset of 664;
the signature after correction is: D49F9DE0)
Statistics
Read error : 0
Jitter error (maybe fixed) : 0
Retry sector count : 0
Damaged sector count : 0

Track 10
Pre-gap length : 00:01:73 Track gain : -8.03 dB
Peak : 0.992706
CRC32 hash (test run) : 083B0EC5
CRC32 hash : 083B0EC5
CRC32 hash (skip zero) : C807D2D1
AccurateRip signature : 587B18FB
->Accurately ripped! (confidence 8)
(matched with the different offset correction value;
calculated using an additional offset of 664;
the signature after correction is: D352F473)
Statistics
Read error : 0
Jitter error (maybe fixed) : 0
Retry sector count : 0
Damaged sector count : 0

Track 11
Pre-gap length : 00:02:57 Track gain : -8.90 dB
Peak : 0.993073
CRC32 hash (test run) : 50AA0824
CRC32 hash : 50AA0824
CRC32 hash (skip zero) : 27CDCD4A
AccurateRip signature : B8B2B129
->Accurately ripped! (confidence 8)
(matched with the different offset correction value;
calculated using an additional offset of 664;
the signature after correction is: 0E8E1A09)
Statistics
Read error : 0
Jitter error (maybe fixed) : 0
Retry sector count : 0
Damaged sector count : 0

Track 12
Pre-gap length : 00:02:05 Track gain : -6.07 dB
Peak : 0.994263
CRC32 hash (test run) : 9D50F60A
CRC32 hash : 9D50F60A
CRC32 hash (skip zero) : B133C98E
AccurateRip signature : C62701C5
->Accurately ripped! (confidence 8)
(matched with the different offset correction value;
calculated using an additional offset of 664;
the signature after correction is: C2EFC09D)
Statistics
Read error : 0
Jitter error (maybe fixed) : 0
Retry sector count : 0
Damaged sector count : 0

Track 13
Pre-gap length : 00:01:67 Track gain : -3.44 dB
Peak : 0.992767
CRC32 hash (test run) : D481FB05
CRC32 hash : D481FB05
CRC32 hash (skip zero) : 033FDC8C
AccurateRip signature : 268B9FE8
->Accurately ripped! (confidence 8)
(matched with the different offset correction value;
calculated using an additional offset of 664;
the signature after correction is: F3AE90D8)
Statistics
Read error : 0
Jitter error (maybe fixed) : 0
Retry sector count : 0
Damaged sector count : 0

Track 14
Pre-gap length : 00:01:55 Track gain : -7.74 dB
Peak : 0.993286
CRC32 hash (test run) : 92B76A44
CRC32 hash : 92B76A44
CRC32 hash (skip zero) : 2FA32BC4
AccurateRip signature : FDC48D21
->Accurately ripped! (confidence 9)
(matched with the different offset correction value;
calculated using an additional offset of 664;
the signature after correction is: 859DDC81)
Statistics
Read error : 0
Jitter error (maybe fixed) : 0
Retry sector count : 0
Damaged sector count : 0

Track 15
Pre-gap length : 00:01:24 Track gain : -4.97 dB
Peak : 0.995422
CRC32 hash (test run) : 680D34D9
CRC32 hash : 680D34D9
CRC32 hash (skip zero) : 391F6592
AccurateRip signature : 6CF1A146
->Accurately ripped! (confidence 8)
(matched with the different offset correction value;
calculated using an additional offset of 664;
the signature after correction is: 830C081E)
Statistics
Read error : 0
Jitter error (maybe fixed) : 0
Retry sector count : 0
Damaged sector count : 0

Track 16
Pre-gap length : 00:01:17 Track gain : -7.41 dB
Peak : 0.993500
CRC32 hash (test run) : 7FA82BE4
CRC32 hash : 7FA82BE4
CRC32 hash (skip zero) : CFC1D6B0
AccurateRip signature : 6C62348C
->Accurately ripped! (confidence 8)
(matched with the different offset correction value;
calculated using an additional offset of 664;
the signature after correction is: 72527AAC)
Statistics
Read error : 0
Jitter error (maybe fixed) : 0
Retry sector count : 7
Damaged sector count : 0

Track 17
Pre-gap length : 00:02:06 Track gain : -4.62 dB
Peak : 0.993103
CRC32 hash (test run) : 71BBC9C4
CRC32 hash : 71BBC9C4
CRC32 hash (skip zero) : 320BBD60
AccurateRip signature : 85674422
->Accurately ripped! (confidence 8)
(matched with the different offset correction value;
calculated using an additional offset of 664;
the signature after correction is: EDDED562)
Statistics
Read error : 0
Jitter error (maybe fixed) : 0
Retry sector count : 0
Damaged sector count : 0

No errors occurred

End of status report

foobar2000 1.2.6 / Dynamic Range Meter 1.1.1
log date: 2015-03-13 01:12:26

--
Analyzed: Bob Marley & The Wailers / 1967-1972 Gold CD1
--

DR Peak RMS Duration Track
--
DR8 0.00 dB -8.95 dB 2:47 01-Freedom Time
DR8 0.00 dB -9.48 dB 2:37 02-Mellow Mood
DR9 0.00 dB -10.03 dB 2:48 03-Nice Time
DR9 0.00 dB -11.59 dB 3:38 04-This Train (BWLV) (Trad)
DR8 -0.05 dB -9.58 dB 3:30 05-Bend Down Low
DR9 -0.08 dB -10.22 dB 1:50 06-Dem A Fi Get A Beatin' (PTLV) (PT)
DR8 -1.40 dB -10.49 dB 3:06 07-How Many Times
DR9 -0.50 dB -10.91 dB 3:03 08-Music Gonna Teach (Music Lesson)
DR7 -0.06 dB -9.93 dB 3:53 09-Selassie Is The Chapel (AG)
DR8 -0.06 dB -9.03 dB 4:16 10-What Goes Around Comes Around
DR8 -0.06 dB -9.94 dB 2:31 11-Feel Alright
DR10 -0.05 dB -11.87 dB 3:50 12-Duppy Conqueror
DR9 -0.06 dB -10.83 dB 2:33 13-Four Hundred Years (PTLV) (PT/LP)
DR8 -0.06 dB -9.94 dB 3:14 14-Go Tell It To The Mountain
DR10 -0.04 dB -11.84 dB 4:07 15-High Tide Or Low Tide
DR7 -0.06 dB -9.26 dB 3:34 16-Put It On
DR11 -0.06 dB -13.49 dB 3:59 17-Small Axe
--

Number of tracks: 17
Official DR value: DR9

Samplerate: 44100 Hz
Channels: 2
Bits per sample: 16
Bitrate: 697 kbps
Codec: FLAC

[CUETools log; Date: 13.03.2015 0:42:26; Version: 2.1.5]
[CTDB TOCID: SSTJU6FA.7aZLkmW5Z4sBvm0uPo-] found.
Track | CTDB Status
1 | (20/20) Accurately ripped
2 | (20/20) Accurately ripped
3 | (20/20) Accurately ripped
4 | (20/20) Accurately ripped
5 | (20/20) Accurately ripped
6 | (20/20) Accurately ripped
7 | (20/20) Accurately ripped
8 | (20/20) Accurately ripped
9 | (20/20) Accurately ripped
10 | (20/20) Accurately ripped
11 | (20/20) Accurately ripped
12 | (20/20) Accurately ripped
13 | (20/20) Accurately ripped
14 | (20/20) Accurately ripped
15 | (20/20) Accurately ripped
16 | (20/20) Accurately ripped
17 | (20/20) Accurately ripped
[AccurateRip ID: 002074a1-01a020a1-e90cf211] found.
Track [ CRC | V2 ] Status
01 [47aeed69|3cbbcc60] (00+00/30) No match
02 [abf2db21|88baf910] (00+00/31) No match
03 [7a6d027a|113047de] (00+00/30) No match
04 [e8dbb913|9ae7c26a] (00+00/30) No match
05 [917df646|5e2f73a7] (00+00/30) No match
06 [048566f4|ff29f639] (00+00/30) No match
07 [8f40632e|abb64e93] (00+00/30) No match
08 [337a521c|926b593a] (00+00/30) No match
09 [dc5527b0|c537a473] (00+00/30) No match
10 [587b18fb|ad2a3708] (00+00/30) No match
11 8b2b129|43fafaeb (00+00/30) No match
12 [c62701c5|4c29e7b2] (00+00/30) No match
13 [268b9fe8|3c726190] (00+00/30) No match
14 [fdc48d21|aff95e16] (00+00/31) No match
15 [6cf1a146|b0074438] (00+00/30) No match
16 [6c62348c|e0ce012b] (00+00/30) No match
17 [85674422|bb8b4145] (00+00/30) No match
Offsetted by 664:
01 [95467cb1] (09/30) Accurately ripped
02 [8a4169f1] (10/31) Accurately ripped
03 [219c1b1a] (09/30) Accurately ripped
04 [40bc555b] (09/30) Accurately ripped
05 [c5b791ce] (09/30) Accurately ripped
06 [9c32dd74] (09/30) Accurately ripped
07 [289e7cde] (09/30) Accurately ripped
08 [0f5ba76c] (09/30) Accurately ripped
09 [d49f9de0] (09/30) Accurately ripped
10 [d352f473] (09/30) Accurately ripped
11 [0e8e1a09] (09/30) Accurately ripped
12 [c2efc09d] (09/30) Accurately ripped
13 [f3ae90d8] (09/30) Accurately ripped
14 [859ddc81] (10/31) Accurately ripped
15 [830c081e] (09/30) Accurately ripped
16 [72527aac] (09/30) Accurately ripped
17 [edded562] (09/30) Accurately ripped
Offsetted by 652:
01 [42235ccd] (00/30) No match (V2 was not tested)
02 [89528009] (00/31) No match (V2 was not tested)
03 [a96231ca] (00/30) No match (V2 was not tested)
04 [0c4186f7] (00/30) No match (V2 was not tested)
05 [f49499ca] (00/30) No match (V2 was not tested)
06 [30970e34] (00/30) No match (V2 was not tested)
07 [a5d8ee86] (00/30) No match (V2 was not tested)
08 [4c27c644] (00/30) No match (V2 was not tested)
09 [8abd1d48] (00/30) No match (V2 was not tested)
10 [105538f7] (00/30) No match (V2 was not tested)
11 [8b761699] (00/30) No match (V2 was not tested)
12 8331071 (00/30) No match (V2 was not tested)
13 [98122ce0] (00/30) No match (V2 was not tested)
14 [4eba51d1] (00/31) No match (V2 was not tested)
15 [249343f2] (00/30) No match (V2 was not tested)
16 [0958ee9c] (00/30) No match (V2 was not tested)
17 [29ab52c2] (00/30) No match (V2 was not tested)

Track Peak [ CRC32 ] [W/O NULL]
-- 100,0 [7F0CDF65] [EC785C6A]
01 99,9 [F7637DB4] [9C9A0A54]
02 99,9 [9EC2A62A] [FA9F7412]
03 100,0 [924B78A4] [5B94B80C]
04 99,9 [01220B6C] [1A356412]
05 99,4 [746D3CB7] [1482F671]
06 99,0 [259BB17E] [C10EB626]
07 85,0 [14F5E61D] [449350A5]
08 94,4 [14E0B278] [87E91405]
09 99,3 [F4A55FEF] [58310B11]
10 99,2 [083B0EC5] [C807D2D1]
11 99,3 [50AA0824] [27CDCD4A]
12 99,4 [9D50F60A] 133C98E
13 99,2 [D481FB05] [033FDC8C]
14 99,3 [92B76A44] [2FA32BC4]
15 99,5 [680D34D9] [391F6592]
16 99,3 [7FA82BE4] [CFC1D6B0]
17 99,3 [71BBC9C4] [320BBD60]

http://i63.fastpic.ru/big/2015/0315/f7/e4729bc8bd2168975da19ce2254821f7.jpg

Track List CD 2:

01. Soul Rebels [03:53]
02. Soul Shakedown Party [03:10]
03. Who Is Mr. Brown (Aka Mr Brown) [03:33]
04. African Herbsman [02:21]
05. Don´t Rock My Boat [02:33]
06. Fussing & Fighting [02:29]
07. Kaya [02:39]
08. Kepp On Moving [03:05]
09. Lively Up Yourself [02:57]
10. Lovelight (Aka Love Live) [03:02]
11. Rocking Steady [01:50]
12. Satisfy My Soul Babe [02:08]
13. Screwface [02:23]
14. Sun Is Shining [02:11]
15. Trench Town Rock (Full Mix) [03:31]
16. Reggae On Broadway [03:15]
17. Concrete Jungle (Original) [03:09]

X Lossless Decoder version 20111214 (138.1)

XLD extraction logfile from 2012-01-11 00:31:28 +0200

Bob Marley / 1967-1972 Gold Cd2

Used drive : MATSHITA DVD-R UJ-898 (revision HC09)

Ripper mode : XLD Secure Ripper
Disable audio cache : OK for the drive with a cache less than 1375KiB
Make use of C2 pointers : NO
Read offset correction : 102
Max retry count : 100
Gap status : Analyzed, Appended

TOC of the extracted CD
Track | Start | Length | Start sector | End sector
-----------
1 | 00:00:00 | 03:52:72 | 0 | 17471
2 | 03:52:72 | 03:09:48 | 17472 | 31694
3 | 07:02:45 | 03:32:23 | 31695 | 47617
4 | 10:34:68 | 02:20:49 | 47618 | 58166
5 | 12:55:42 | 02:33:00 | 58167 | 69641
6 | 15:28:42 | 02:28:50 | 69642 | 80791
7 | 17:57:17 | 02:38:69 | 80792 | 92710
8 | 20:36:11 | 03:04:52 | 92711 | 106562
9 | 23:40:63 | 02:56:43 | 106563 | 119805
10 | 26:37:31 | 03:01:49 | 119806 | 133429
11 | 29:39:05 | 01:49:33 | 133430 | 141637
12 | 31:28:38 | 02:07:63 | 141638 | 151225
13 | 33:36:26 | 02:22:18 | 151226 | 161893
14 | 35:58:44 | 02:10:44 | 161894 | 171687
15 | 38:09:13 | 03:30:05 | 171688 | 187442
16 | 41:39:18 | 03:14:54 | 187443 | 202046
17 | 44:53:72 | 03:08:74 | 202047 | 216220

List of alternate offset correction values
# | Absolute | Relative | Confidence
------------
1 | 766 | 664 | 8

AccurateRip Summary
Track 01 : OK (confidence 8, with different offset)
Track 02 : OK (confidence 8, with different offset)
Track 03 : OK (confidence 8, with different offset)
Track 04 : OK (confidence 8, with different offset)
Track 05 : OK (confidence 8, with different offset)
Track 06 : OK (confidence 8, with different offset)
Track 07 : OK (confidence 8, with different offset)
Track 08 : OK (confidence 8, with different offset)
Track 09 : OK (confidence 8, with different offset)
Track 10 : OK (confidence 8, with different offset)
Track 11 : OK (confidence 8, with different offset)
Track 12 : OK (confidence 8, with different offset)
Track 13 : OK (confidence 8, with different offset)
Track 14 : OK (confidence 8, with different offset)
Track 15 : OK (confidence 8, with different offset)
Track 16 : OK (confidence 8, with different offset)
Track 17 : OK (confidence 8, with different offset)
->All tracks accurately ripped.

All Tracks
Filename : /Users/macuser/Desktop/Bob Marley (1967-1972)Gold(2006)/01 Bob Marley - 1967-1972 Gold Cd2.flac
Album gain : -6.77 dB
Peak : 0.999939
CRC32 hash (test run) : 2631E5AF
CRC32 hash : 2631E5AF
CRC32 hash (skip zero) : 63A3E6C3
Statistics
Read error : 0
Jitter error (maybe fixed) : 0
Retry sector count : 7
Damaged sector count : 0

Track 01
Pre-gap length : 00:02:00 Track gain : -8.03 dB
Peak : 0.993622
CRC32 hash (test run) : E81B2563
CRC32 hash : E81B2563
CRC32 hash (skip zero) : 592447CB
AccurateRip signature : 5FCAAC90
->Accurately ripped! (confidence 8)
(matched with the different offset correction value;
calculated using an additional offset of 664;
the signature after correction is: 32636750)
Statistics
Read error : 0
Jitter error (maybe fixed) : 0
Retry sector count : 0
Damaged sector count : 0

Track 02
Pre-gap length : 00:01:57 Track gain : -6.47 dB
Peak : 0.994781
CRC32 hash (test run) : E65F9A4D
CRC32 hash : E65F9A4D
CRC32 hash (skip zero) : 3A1B1463
AccurateRip signature : 5DF33A27
->Accurately ripped! (confidence 8)
(matched with the different offset correction value;
calculated using an additional offset of 664;
the signature after correction is: 2A7D65A7)
Statistics
Read error : 0
Jitter error (maybe fixed) : 0
Retry sector count : 0
Damaged sector count : 0

Track 03
Pre-gap length : 00:01:67 Track gain : -5.29 dB
Peak : 0.988495
CRC32 hash (test run) : 00170FDE
CRC32 hash : 00170FDE
CRC32 hash (skip zero) : 9509F1F5
AccurateRip signature : F61A2A7A
->Accurately ripped! (confidence 8)
(matched with the different offset correction value;
calculated using an additional offset of 664;
the signature after correction is: 343540C2)
Statistics
Read error : 0
Jitter error (maybe fixed) : 0
Retry sector count : 0
Damaged sector count : 0

Track 04
Pre-gap length : 00:00:34 Track gain : -7.64 dB
Peak : 0.853180
CRC32 hash (test run) : 233BC980
CRC32 hash : 233BC980
CRC32 hash (skip zero) : 66032F09
AccurateRip signature : 721C87EA
->Accurately ripped! (confidence 8)
(matched with the different offset correction value;
calculated using an additional offset of 664;
the signature after correction is: 0B41834A)
Statistics
Read error : 0
Jitter error (maybe fixed) : 0
Retry sector count : 0
Damaged sector count : 0

Track 05
Pre-gap length : 00:00:63 Track gain : -6.29 dB
Peak : 0.602997
CRC32 hash (test run) : 51C84123
CRC32 hash : 51C84123
CRC32 hash (skip zero) : 9475DCF4
AccurateRip signature : CA851C84
->Accurately ripped! (confidence 8)
(matched with the different offset correction value;
calculated using an additional offset of 664;
the signature after correction is: 8EEF8A5C)
Statistics
Read error : 0
Jitter error (maybe fixed) : 0
Retry sector count : 0
Damaged sector count : 0

Track 06
Pre-gap length : 00:01:43 Track gain : -9.09 dB
Peak : 0.993225
CRC32 hash (test run) : 4E215BDC
CRC32 hash : 4E215BDC
CRC32 hash (skip zero) : 185594B6
AccurateRip signature : 534E5437
->Accurately ripped! (confidence 8)
(matched with the different offset correction value;
calculated using an additional offset of 664;
the signature after correction is: EEC55DF7)
Statistics
Read error : 0
Jitter error (maybe fixed) : 0
Retry sector count : 0
Damaged sector count : 0

Track 07
Pre-gap length : 00:01:43 Track gain : -4.72 dB
Peak : 0.885010
CRC32 hash (test run) : 632CEB47
CRC32 hash : 632CEB47
CRC32 hash (skip zero) : B4D9084B
AccurateRip signature : 5466B83A
->Accurately ripped! (confidence 8)
(matched with the different offset correction value;
calculated using an additional offset of 664;
the signature after correction is: F1742102)
Statistics
Read error : 0
Jitter error (maybe fixed) : 0
Retry sector count : 0
Damaged sector count : 0

Track 08
Pre-gap length : 00:01:17 Track gain : -7.50 dB
Peak : 0.885223
CRC32 hash (test run) : F05AA734
CRC32 hash : F05AA734
CRC32 hash (skip zero) : FD2FF227
AccurateRip signature : 8F380700
->Accurately ripped! (confidence 8)
(matched with the different offset correction value;
calculated using an additional offset of 664;
the signature after correction is: B107B330)
Statistics
Read error : 0
Jitter error (maybe fixed) : 0
Retry sector count : 0
Damaged sector count : 0

Track 09
Pre-gap length : 00:01:10 Track gain : -5.11 dB
Peak : 0.886017
CRC32 hash (test run) : 0CF08270
CRC32 hash : 0CF08270
CRC32 hash (skip zero) : 28DDA234
AccurateRip signature : F9FCCED8
->Accurately ripped! (confidence 8)
(matched with the different offset correction value;
calculated using an additional offset of 664;
the signature after correction is: B83F9D30)
Statistics
Read error : 0
Jitter error (maybe fixed) : 0
Retry sector count : 0
Damaged sector count : 0

Track 10
Pre-gap length : 00:01:35 Track gain : -7.45 dB
Peak : 0.788971
CRC32 hash (test run) : 1D0D7112
CRC32 hash : 1D0D7112
CRC32 hash (skip zero) : A4B4CFA8
AccurateRip signature : 3B6D3C80
->Accurately ripped! (confidence 8)
(matched with the different offset correction value;
calculated using an additional offset of 664;
the signature after correction is: 25056CF8)
Statistics
Read error : 0
Jitter error (maybe fixed) : 0
Retry sector count : 0
Damaged sector count : 0

Track 11
Pre-gap length : 00:01:43 Track gain : -6.14 dB
Peak : 0.824951
CRC32 hash (test run) : 5E4EA233
CRC32 hash : 5E4EA233
CRC32 hash (skip zero) : 41B4C23A
AccurateRip signature : D7D5BA43
->Accurately ripped! (confidence 8)
(matched with the different offset correction value;
calculated using an additional offset of 664;
the signature after correction is: 90A40063)
Statistics
Read error : 0
Jitter error (maybe fixed) : 0
Retry sector count : 0
Damaged sector count : 0

Track 12
Pre-gap length : 00:00:63 Track gain : -7.02 dB
Peak : 0.819611
CRC32 hash (test run) : B9D92CC4
CRC32 hash : B9D92CC4
CRC32 hash (skip zero) : 635A0D07
AccurateRip signature : ACA9E7EA
->Accurately ripped! (confidence 8)
(matched with the different offset correction value;
calculated using an additional offset of 664;
the signature after correction is: 4ABD395A)
Statistics
Read error : 0
Jitter error (maybe fixed) : 0
Retry sector count : 0
Damaged sector count : 0

Track 13
Pre-gap length : 00:01:12 Track gain : -8.14 dB
Peak : 0.994324
CRC32 hash (test run) : 17BFC708
CRC32 hash : 17BFC708
CRC32 hash (skip zero) : 9C721DA1
AccurateRip signature : C8736679
->Accurately ripped! (confidence 8)
(matched with the different offset correction value;
calculated using an additional offset of 664;
the signature after correction is: BE7A46D9)
Statistics
Read error : 0
Jitter error (maybe fixed) : 0
Retry sector count : 7
Damaged sector count : 0

Track 14
Pre-gap length : 00:01:02 Track gain : -6.60 dB
Peak : 0.885742
CRC32 hash (test run) : CC246758
CRC32 hash : CC246758
CRC32 hash (skip zero) : B47EF77A
AccurateRip signature : F4B62BFE
->Accurately ripped! (confidence 8)
(matched with the different offset correction value;
calculated using an additional offset of 664;
the signature after correction is: 12F20266)
Statistics
Read error : 0
Jitter error (maybe fixed) : 0
Retry sector count : 0
Damaged sector count : 0

Track 15
Pre-gap length : 00:01:62 Track gain : -6.57 dB
Peak : 0.999939
CRC32 hash (test run) : 5D2ED844
CRC32 hash : 5D2ED844
CRC32 hash (skip zero) : 97452483
AccurateRip signature : 9C444913
->Accurately ripped! (confidence 8)
(matched with the different offset correction value;
calculated using an additional offset of 664;
the signature after correction is: 664A128B)
Statistics
Read error : 0
Jitter error (maybe fixed) : 0
Retry sector count : 0
Damaged sector count : 0

Track 16
Pre-gap length : 00:02:00 Track gain : -4.16 dB
Peak : 0.765015
CRC32 hash (test run) : 302E7CD4
CRC32 hash : 302E7CD4
CRC32 hash (skip zero) : 5683C59F
AccurateRip signature : ED8065FE
->Accurately ripped! (confidence 8)
(matched with the different offset correction value;
calculated using an additional offset of 664;
the signature after correction is: 625108C6)
Statistics
Read error : 0
Jitter error (maybe fixed) : 0
Retry sector count : 0
Damaged sector count : 0

Track 17
Pre-gap length : 00:01:50 Track gain : -6.34 dB
Peak : 0.851959
CRC32 hash (test run) : 310C7A83
CRC32 hash : 310C7A83
CRC32 hash (skip zero) : 3CDAD844
AccurateRip signature : D56A3CB3
->Accurately ripped! (confidence 8)
(matched with the different offset correction value;
calculated using an additional offset of 664;
the signature after correction is: 729DABD3)
Statistics
Read error : 0
Jitter error (maybe fixed) : 0
Retry sector count : 0
Damaged sector count : 0

No errors occurred

End of status report

foobar2000 1.2.6 / Dynamic Range Meter 1.1.1
log date: 2015-03-13 01:14:04

--
Analyzed: Bob Marley / 1967-1972 Gold Cd2
--

DR Peak RMS Duration Track
--
DR8 -0.06 dB -9.68 dB 3:53 01-Soul Rebels
DR9 -0.05 dB -10.15 dB 3:10 02-Soul Shakedown Party
DR11 -0.10 dB -13.36 dB 3:32 03-Who Is Mr. Brown (Aka Mr Brown)
DR8 -1.38 dB -10.97 dB 2:21 04-African Herbsman
DR7 -4.39 dB -12.11 dB 2:33 05-DonВґt Rock My Boat
DR7 -0.06 dB -9.75 dB 2:29 06-Fussing & Fighting
DR9 -1.06 dB -11.61 dB 2:39 07-Kaya
DR8 -1.06 dB -10.32 dB 3:05 08-Kepp On Moving
DR10 -1.05 dB -12.45 dB 2:57 09- Lively Up Yourself
DR7 -2.06 dB -10.92 dB 3:02 10-Lovelight (Aka Love Live)
DR8 -1.67 dB -11.31 dB 1:49 11-Rocking Steady
DR9 -1.73 dB -12.63 dB 2:08 12-Satisfy My Soul Babe
DR7 -0.05 dB -9.23 dB 2:22 13- Screwface
DR9 -1.05 dB -12.19 dB 2:11 14-Sun Is Shining
DR9 0.00 dB -10.19 dB 3:30 15-Trench Town Rock (Full Mix)
DR7 -2.33 dB -10.64 dB 3:15 16-Reggae On Broadway
DR8 -1.39 dB -11.46 dB 3:09 17- Concrete Jungle (Original)
--

Number of tracks: 17
Official DR value: DR8

Samplerate: 44100 Hz
Channels: 2
Bits per sample: 16
Bitrate: 724 kbps
Codec: FLAC

[CUETools log; Date: 13.03.2015 0:42:05; Version: 2.1.5]
[CTDB TOCID: 7TlGrftb92voHugYzwB8eYqtHe0-] found.
Track | CTDB Status
1 | (19/19) Accurately ripped
2 | (19/19) Accurately ripped
3 | (19/19) Accurately ripped
4 | (19/19) Accurately ripped
5 | (19/19) Accurately ripped
6 | (19/19) Accurately ripped
7 | (19/19) Accurately ripped
8 | (19/19) Accurately ripped
9 | (19/19) Accurately ripped
10 | (19/19) Accurately ripped
11 | (19/19) Accurately ripped
12 | (19/19) Accurately ripped
13 | (19/19) Accurately ripped
14 | (19/19) Accurately ripped
15 | (19/19) Accurately ripped
16 | (19/19) Accurately ripped
17 | (19/19) Accurately ripped
[AccurateRip ID: 001e5da5-017a55cd-e80b4211] found.
Track [ CRC | V2 ] Status
01 [5fcaac90|538bb3e3] (00+00/30) No match
02 [5df33a27|1ac55e6e] (00+00/30) No match
03 [f61a2a7a|cebb8b01] (00+00/30) No match
04 [721c87ea|b087e5fd] (00+00/30) No match
05 [ca851c84|80ff6214] (00+00/30) No match
06 [534e5437|3e7536b9] (00+00/30) No match
07 [5466b83a|04580360] (00+00/30) No match
08 [8f380700|61747dd1] (00+00/30) No match
09 [f9fcced8|5dc1d3db] (00+00/30) No match
10 [3b6d3c80|dde4ad02] (00+00/30) No match
11 [d7d5ba43|a18a0028] (00+00/30) No match
12 [aca9e7ea|d1ec5132] (00+00/30) No match
13 [c8736679|65048181] (00+00/30) No match
14 [f4b62bfe|92bb07c7] (00+00/30) No match
15 [9c444913|959c104d] (00+00/30) No match
16 [ed8065fe|ba4a2ee5] (00+00/30) No match
17 [d56a3cb3|be9b8b74] (00+00/30) No match
Offsetted by 664:
01 [32636750] (09/30) Accurately ripped
02 [2a7d65a7] (09/30) Accurately ripped
03 [343540c2] (09/30) Accurately ripped
04 [0b41834a] (09/30) Accurately ripped
05 [8eef8a5c] (09/30) Accurately ripped
06 [eec55df7] (09/30) Accurately ripped
07 [f1742102] (09/30) Accurately ripped
08 107b330 (09/30) Accurately ripped
09 83f9d30 (09/30) Accurately ripped
10 [25056cf8] (09/30) Accurately ripped
11 [90a40063] (09/30) Accurately ripped
12 [4abd395a] (09/30) Accurately ripped
13 e7a46d9 (09/30) Accurately ripped
14 [12f20266] (09/30) Accurately ripped
15 [664a128b] (09/30) Accurately ripped
16 [625108c6] (09/30) Accurately ripped
17 [729dabd3] (09/30) Accurately ripped
Offsetted by 652:
01 [ca5763f0] (00/30) No match (V2 was not tested)
02 [fb9cd3e7] (00/30) No match (V2 was not tested)
03 acbe55e (00/30) No match (V2 was not tested)
04 [11bdc29a] (00/30) No match (V2 was not tested)
05 [35064ab0] (00/30) No match (V2 was not tested)
06 [34717b17] (00/30) No match (V2 was not tested)
07 [8434a85e] (00/30) No match (V2 was not tested)
08 [46026798] (00/30) No match (V2 was not tested)
09 [0fcc4944] (00/30) No match (V2 was not tested)
10 [d9dc1efc] (00/30) No match (V2 was not tested)
11 [facb7453] (00/30) No match (V2 was not tested)
12 24ac122 (00/30) No match (V2 was not tested)
13 [2db1aba9] (00/30) No match (V2 was not tested)
14 [4b758df2] (00/30) No match (V2 was not tested)
15 [daed700f] (00/30) No match (V2 was not tested)
16 [d0c8a322] (00/30) No match (V2 was not tested)
17 [055d8343] (00/30) No match (V2 was not tested)

Track Peak [ CRC32 ] [W/O NULL]
-- 99,9 [2631E5AF] [63A3E6C3]
01 99,3 [E81B2563] [592447CB]
02 99,4 [E65F9A4D] [3A1B1463]
03 98,8 [00170FDE] [9509F1F5]
04 85,3 [233BC980] [66032F09]
05 60,2 [51C84123] [9475DCF4]
06 99,3 [4E215BDC] [185594B6]
07 88,5 [632CEB47] 4D9084B
08 88,5 [F05AA734] [FD2FF227]
09 88,6 [0CF08270] [28DDA234]
10 78,8 [1D0D7112] [A4B4CFA8]
11 82,4 [5E4EA233] [41B4C23A]
12 81,9 9D92CC4 [635A0D07]
13 99,4 [17BFC708] [9C721DA1]
14 88,5 [CC246758] 47EF77A
15 99,9 [5D2ED844] [97452483]
16 76,5 [302E7CD4] [5683C59F]
17 85,1 [310C7A83] [3CDAD844]

http://i60.fastpic.ru/big/2015/0315/f9/586b0c66597c9cf81ca0a7fdc0c309f9.jpg


DOWNLOAD LINKS:
Buy Premium To Support Me & Get Resumable Support & Max Speed


Links are Interchangeable - No Password - Single Extraction

 
 
 
Dear visitor, you went to the site as an unregistered user. We encourage you to register or enter the site under your name.
 
   
 
 (Votes #: 0)