2013Zone For Latest Downloads

 
     
 
Legal Downloads » Music » Soft Machine Legacy - Live in Zaandam (2005)
Menu
Home Applications
Games Movies
Music TV Shows
Torrents Graphics

Sitemap

RSS
 
Advanced Search
Last News
Site Info
Top Contributors:
  1    supper88 32766
  2    admin 32671
  3    Whisky 10080
  4    Shark_ 8911
  5    creativelivenew 8706
  6    whathesupa 2799
  7    candymypost 840
  8    hvnteam 629
  9    vuong87 3


Articles:
  This Hour: 0
  Today: 0
  This Month: 59
  All Time: 515636


Torrents:
  Today: 0
  Yesterday: 0
  All Time: 156702


Membership:
  Registered Today :0
  This Hour:0
  This Month:0
  Total:14
  Banned:1

{online}
{inform_torrent}
Friend:
We Recomend
Trend
Trend

Search In Site

Music : Soft Machine Legacy - Live in Zaandam (2005)
 
http://i60.fastpic.ru/big/2015/0320/98/bcae50693d9011231403170aa459e798.jpg

Soft Machine Legacy - Live in Zaandam (2005)
EAC | Flac(Image) + Cue + Log & MP3 CBR 320Kbps
MoonJune Records, MJR006 | ~ 280 or 121 Mb | Scans(600dpi, jpg) -> 57 Mb
Canterbury Scene / Prog Rock / Jazz-Rock / Contemporary Jazz

"This live set is a reunion of sorts of various elements of the long-lived, multiple personality British neo-jazz outfit, including drummer John Marshall, who took over after Robert Wyatt's departure, longtime bassist Hugh Hopper, mid-1970s guitarist John Etheridge, and saxophonist and keyboardist Elton Dean, who died in February 2006, just after this album's release..."

Soft Machine Legacy - Live in Zaandam (2005):

http://i60.fastpic.ru/big/2015/0320/55/293ebc037516e3750798e2cc57ec4d55.jpg

Tracklist:

01. Ash 11:42
02. 1212 12:05
03. Bakers Treat 06:55
04. Kings And Queens 09:14
05. Down 02:44
06. Bug Creese 08:33

Live in Zaandam (Holland), May 10, 2005

Musicians:

Elton Dean - saxophone & keyboards
John Etheridge - guitar
Hugh Hopper - bass
John Marshall - drums


Exact Audio Copy V1.0 beta 3 from 29. August 2011

EAC extraction logfile from 2. August 2012, 20:06

Soft Machine / Legacy Live in Zaandam

Used drive : HL-DT-STBDDVDRW GBC-H20N Adapter: 1 ID: 0

Read mode : Secure
Utilize accurate stream : Yes
Defeat audio cache : Yes
Make use of C2 pointers : No

Read offset correction

: 667
Overread into Lead-In and Lead-Out : No
Fill up missing offset samples with silence : Yes
Delete leading and trailing silent blocks : No
Null samples used in CRC calculations : Yes
Used interface : Native Win32 interface for Win NT & 2000

Used output format : User Defined Encoder
Selected bitrate : 1024 kBit/s
Quality : High
Add ID3 tag : No
Command line compressor : C:\Program Files\Exact Audio Copy\wavpack.exe
Additional command line options : -hm %source% %dest%

TOC of the extracted CD Track | Start | Length | Start sector | End sector
-----------
1 | 0:00.00 | 11:41.56 | 0 | 52630
2 | 11:41.56 | 12:04.46 | 52631 | 106976
3 | 23:46.27 | 6:55.04 | 106977 | 138105
4 | 30:41.31 | 9:14.06 | 138106 | 179661
5 | 39:55.37 | 2:43.61 | 179662 | 191947
6 | 42:39.23 | 8:32.43 | 191948 | 230390

Range status and errors

Selected range Filename I:\Music\Canterbury scene\Soft Machine\Soft.Machine-Discography.1968-2010.FLAC.CUE.Lossless\3 - Soft Works - Soft Machine Legacy\2 - Soft Machine Legacy - Live At Zaandam\Soft Machine - Legacy Live in Zaandam.wav Peak level 99.1 %
Extraction speed 6.1 X
Range quality 100.0 %
Test CRC 0A10C5B6
Copy CRC 0A10C5B6
Copy OK

No errors occurred


AccurateRip summary

Track 1 cannot be verified as accurate (confidence 3) [53773280], AccurateRip returned DFDF383 (AR v2)
Track 2 cannot be verified as accurate (confidence 3) [DC476E36], AccurateRip returned [6D14087A] (AR v2)
Track 3 cannot be verified as accurate (confidence 3) [DD9A1E59], AccurateRip returned [353FB536] (AR v2)
Track 4 cannot be verified as accurate (confidence 3) [6FFA9F9F], AccurateRip returned [96C493EC] (AR v2)
Track 5 cannot be verified as accurate (confidence 3) [F421416D], AccurateRip returned [0459CF91] (AR v2)
Track 6 cannot be verified as accurate (confidence 3) [AE37A228], AccurateRip returned 884A4B5 (AR v2)

No tracks could be verified as accurate
You may have a different pressing from the one(s) in the database

End of status report

---- CUETools DB Plugin V2.1.3

[CTDB TOCID: aqQnSJ420X_6RkIMzqxac39rCKg-] disk not present in database, Submit result: aqQnSJ420X_6RkIMzqxac39rCKg- has been uploaded

==== Log checksum AC053530422CF44BBBCF18EB05E1133CE861D5E83BFA41F90A07C1BEA3B63361 ====

foobar2000 1.2.9 / Dynamic Range Meter 1.1.1
log date: 2015-03-19 10:38:36

--
Analyzed: Soft Machine Legacy / Live in Zaandam
--

DR Peak RMS Duration Track
--
DR12 -0.08 dB -16.33 dB 11:42 01-Ash
DR12 -0.09 dB -16.03 dB 12:05 02-1212
DR15 -2.72 dB -20.53 dB 6:55 03-Bakers Treat
DR16 -0.09 dB -19.97 dB 9:14 04-Kings And Queens
DR12 -0.08 dB -13.98 dB 2:44 05-2 Down
DR10 -0.08 dB -12.62 dB 8:33 06-Bug Creese
--

Number of tracks: 6
Official DR value: DR13

Samplerate: 44100 Hz
Channels: 2
Bits per sample: 16
Bitrate: 741 kbps
Codec: WavPack

[CUETools log; Date: 19.03.2015 10:39:11; Version: 2.1.4]
[CTDB TOCID: aqQnSJ420X_6RkIMzqxac39rCKg-] found.
Track | CTDB Status
1 | (3/3) Accurately ripped
2 | (3/3) Accurately ripped
3 | (3/3) Accurately ripped
4 | (3/3) Accurately ripped
5 | (3/3) Accurately ripped
6 | (2/3) Accurately ripped, or (1/3) differs in 5786 samples @08:32:25-08:32:33
[AccurateRip ID: 000dba83-0046d249-4e0bff06] found.
Track [ CRC | V2 ] Status
01 [4d3061cb|53773280] (0+4/7) Accurately ripped
02 [3405a797|dc476e36] (0+4/7) Accurately ripped
03 [cd27d61f|dd9a1e59] (0+4/7) Accurately ripped
04 [0b6961a5|6ffa9f9f] (0+4/7) Accurately ripped
05 [6e54b7cb|f421416d] (0+4/7) Accurately ripped
06 [ecbd0614|ae37a228] (0+3/6) Accurately ripped
Offsetted by 664:
01 dfdf383 (3/7) Accurately ripped
02 [6d14087a] (3/7) Accurately ripped
03 [353fb536] (3/7) Accurately ripped
04 [96c493ec] (3/7) Accurately ripped
05 [0459cf91] (3/7) Accurately ripped
06 884a4b5 (3/6) Accurately ripped

Track Peak [ CRC32 ] [W/O NULL] [ LOG ]
-- 99,1 [0A10C5B6] [A378D469] CRC32
01 99,1 [9E67C8FC] [5BABBEB7]
02 98,9 [6B4FF17B] [AE04D08D]
03 73,0 [7AF47F1C] 2E53FD4
04 98,9 [32345202] [F1820118]
05 99,0 [48C98E56] [AFD4D503]
06 99,0 [039582BD] A2AFA14

http://i60.fastpic.ru/big/2015/0320/3b/3b941c5ec11bc543c45ff4a53017f93b.jpg

DOWNLOAD LINKS:
Buy Premium To Support Me & Get Resumable Support & Max Speed


Links are Interchangeable - No Password - Single Extraction

 
 
 
Dear visitor, you went to the site as an unregistered user. We encourage you to register or enter the site under your name.
 
   
 
 (Votes #: 0)